Witamy Guest (Zaloguj) Zarejestruj się Przypomnij hasło Torrenty Kontakt Napisy PL


Torrent Kategorie
 » Wszystkie torrenty
Filmy :
 » DivX - XviD31288  
 » RMVB5171  
 » VCD - SVCD64  
 » DVD-R1952  
 » HDTV-HD-DVD736  
 » x 2642804  
 » 3D95  
 » 4K37  
 » Seriale8171  
Gry :
 » Gry PC6235  
 » Gry Konsole1351  
 » Poradniki i inne2  
Muzyka :
 » Albumy33215  
 » Teledyski/Koncerty3528  
Dokumenty :
 » E-Booki5252  
 » Audiobooki967  
 » Komiksy620  
 » Czasopisma16  
Programy :
 » Windows5317  
 » Linux + Macintosh280  
Inne :
 » Dla Dzieci2997  
 » Sport722  
 » GSM - PDA859  
 » Manga - Anime2358  
 » Pozostałe - Różne1229  
Erotyka :
 » Filmy19618  
 » Zdjęcia5  
 » Czasopisma erotyczne13  
 » Gry erotyczne0  

Detale Torrenta
Nazwa plikuShameless US S09E13 - Lost [1080p.iT.WEB-DL.H.264.DD5.1] [Napisy PL]
Torrent:Shameless US S09E13 - Lost [1080p.iT.WEB-DL.H.264.DD5.1] [Napisy PL].torrent
Info Hash:f9be8a98e101106e40f1172071de9c91ffa5b751
Opis:

Info

produkcja: USA
gatunek: Dramat, Komedia
twórca: Paul Abbott, John Wells
muzyka: iZLER, Mark Mothersbaugh, Jeff Russo
zdjęcia: Rodney Charters, J. Michael Muro, David Moritz
czas trwania: ok. 58 min.

Opis

Serial opowiada o rodzinie ze społecznego marginesu. Rodzina Gallagherów to szóstka dzieci i wiecznie pijany ojciec - Frank Gallagher, który robi wszystko, tylko nie zajmuje się domem. Dzieciom nie pomaga także matka, która odeszła od rodziny. Cały ciężar prowadzenia domu i rodziny spada na barki najstarszej córki Fiony. Bohaterka w związku z niedyspozycją rodziców sama zajmuje się wychowywaniem swoich licznych braci i sióstr. To nie jest jednak zadanie łatwe do wykonania.

Obsada

William H. Macy - Frank Gallagher
Emmy Rossum - Fiona Gallagher
Jeremy Allen White - Phillip Lip Gallagher
Cameron Monaghan - Ian Gallagher
Emma Kenney - Debbie Gallagher
Ethan Cutkosky - Carl Gallagher

Dane Techniczne

Format : Matroska
Format version : Version 4 / Version 2
File size : 2.26 GiB
Duration : 58 min 22 s
Overall bit rate : 5 551 kb/s
Encoded date : UTC 2019-03-13 09:36:21

Video
ID : 1
Format : AVC
Format/Info : Advanced Video Codec
Format profile : HighL4
Format settings : CABAC / 4 Ref Frames
Format settings, CABAC : Yes
Format settings, ReFrames : 4 frames
Codec ID : V_MPEG4/ISO/AVC
Duration : 58 min 21 s
Bit rate mode : Constant
Bit rate : 5 236 kb/s
Width : 1 920 pixels
Height : 1 080 pixels
Display aspect ratio : 16:9
Frame rate mode : Constant
Frame rate : 23.976 (24000/1001) FPS
Color space : YUV
Chroma subsampling : 4:2:0
Bit depth : 8 bits
Scan type : Progressive
Bits/(PixelFrame) : 0.105
Stream size : 2.11 GiB (93)
Default : Yes
Forced : Yes
Color range : Limited
Color primaries : BT.709
Transfer characteristics : BT.709
Matrix coefficients : BT.709

Audio
ID : 2
Format : AC-3
Format/Info : Audio Coding 3
Commercial name : Dolby Digital
Codec ID : A_AC3
Duration : 58 min 22 s
Bit rate mode : Constant
Bit rate : 384 kb/s
Channel(s) : 6 channels
Channel layout : L R C LFE Ls Rs
Sampling rate : 48.0 kHz
Frame rate : 31.250 FPS (1536 SPF)
Bit depth : 16 bits
Compression mode : Lossy
Stream size : 160 MiB (7)
Language : English
Service kind : Complete Main
Default : Yes
Forced : Yes

Text
ID : 3
Format : UTF-8
Codec ID : S_TEXT/UTF8
Codec ID/Info : UTF-8 Plain Text
Duration : 57 min 30 s
Bit rate : 60 b/s
Count of elements : 731
Stream size : 25.3 KiB (0)
Language : Polish
Default : Yes
Forced : Yes
Kategoria:Seriale
Ocena: N/A
Rozmiar:2.26 GiB
Dodane:15/03/2019 08:43:00
Uploader:Ishimura
Statystyki:Seedów: 6   Leecherów: 2
Ostatnie Uaktualnienie16/03/2019 17:53:31


Brak komentarzy...


Wstecz
Uwaga!!!
Zaden z plikow znajdujacych sie w serwisie nie znajduje sie na serwerze. Torrenty sa wlasnoscia użytkownikow. Administrator serwisu ani wlasciciel serwera nie moze wiec poniesc konsekwencji za to co uzytkownicy wstawiaja, lub za to co czynia na stronie. Nie mozesz takze uzywac tego serwisu do rozpowszechniania lub sciagania materialow do ktorych nie masz odpowiednich praw lub licencji. Uzytkownicy odpowiedzialni są za przestrzeganie tych zasad. Ta strona nie zajmuje sie rozpowszechnianiem plikow chronionych prawem autorskim.

[ Execution time: 0.0135 sec. ] - [Memory usage: 1.93 MiB] - [ GZIP: disabled ]