Witamy Guest (Zaloguj) Zarejestruj się Przypomnij hasło Torrenty Kontakt Napisy PL


Torrent Kategorie
 » Wszystkie torrenty
Filmy :
 » DivX - XviD32914  
 » RMVB5171  
 » VCD - SVCD64  
 » DVD-R1952  
 » HDTV-HD-DVD760  
 » x 2642869  
 » 3D95  
 » 4K43  
 » Seriale8870  
Gry :
 » Gry PC6625  
 » Gry Konsole1351  
 » Poradniki i inne2  
Muzyka :
 » Albumy35165  
 » Teledyski/Koncerty3563  
Dokumenty :
 » E-Booki5608  
 » Audiobooki1091  
 » Komiksy621  
 » Czasopisma16  
Programy :
 » Windows5336  
 » Linux + Macintosh280  
Inne :
 » Dla Dzieci2998  
 » Sport751  
 » GSM - PDA867  
 » Manga - Anime2358  
 » Pozostałe - Różne1232  
Erotyka :
 » Filmy19621  
 » Zdjęcia5  
 » Czasopisma erotyczne13  
 » Gry erotyczne1  

Detale Torrenta
Nazwa plikuDiagnoza S04E04 [720p.WEB-DL.H.264.AC3] [PL]
Torrent:Diagnoza S04E04 [720p.WEB-DL.H.264.AC3] [PL].torrent
Info Hash:7d80c730bf2a1e0bdd81e8d13d91c2e1b801f996
Opis:

Info

produkcja: PL
gatunek: Obyczajowy, Kryminalny
reżyseria: Łukasz Kośmicki
scenariusz: Dana Łukasińska, Hanna Węsierska
zdjęcia: Jeremi Prokopowicz, Krzysztof Mieszkowski
muzyka: Łukasz Targosz
czas trwania: ok. 41 min.

Opis

W czwartym sezonie Jan Artman, który został ordynatorem oddziału chirurgii, będzie się zmagał z mroczną przeszłością i zbrodnią, której się dopuścił. Czy dosięgnie go zemsta Bogny, czy jednak przebiegły lekarz uniknie konsekwencji swoich czynów? Do personelu rybnickiego szpitala dołączy Szymon Brock. Uznany pediatra oraz toksykolog, ale przede wszystkim wolny duch i ekolog żyjący w zgodzie z naturą robi potężne wrażenie. Jedynie Piotr Sadzik podchodzi do niego z dystansem. W tym czasie partner Leśniewskiej, Michał, coraz bardziej popada w uzależnienie od leków...

Obsada

Adam Woronowicz - Jan Artman
Maja Ostaszewska - Anna Nowak
Maciej Zakościelny - Michał Wolski
Michał Czernecki - Piotr Sadzik
Magdalena Popławska - Marta Artman
Sonia Bohosiewicz - Wanda Jureczko
Aleksandra Adamska - Dagmara Mazurek

Dane Techniczne

Format : Matroska
Format version : Version 4 / Version 2
File size : 1.00 GiB
Duration : 41 min 17 s
Overall bit rate mode : Variable
Overall bit rate : 3 478 kb/s
Encoded date : UTC 2019-03-13 07:31:50

Video
ID : 1
Format : AVC
Format/Info : Advanced Video Codec
Format profile : HighL3.1
Format settings : CABAC / 5 Ref Frames
Format settings, CABAC : Yes
Format settings, ReFrames : 5 frames
Codec ID : V_MPEG4/ISO/AVC
Duration : 41 min 17 s
Bit rate mode : Variable
Bit rate : 3 092 kb/s
Maximum bit rate : 4 500 kb/s
Width : 1 280 pixels
Height : 720 pixels
Display aspect ratio : 16:9
Frame rate mode : Constant
Frame rate : 25.000 FPS
Color space : YUV
Chroma subsampling : 4:2:0
Bit depth : 8 bits
Scan type : Progressive
Bits/(PixelFrame) : 0.134
Stream size : 913 MiB (89)
Default : Yes
Forced : Yes
Color range : Limited
Color primaries : BT.709
Transfer characteristics : BT.709
Matrix coefficients : BT.709

Audio
ID : 2
Format : AC-3
Format/Info : Audio Coding 3
Commercial name : Dolby Digital
Codec ID : A_AC3
Duration : 41 min 17 s
Bit rate mode : Constant
Bit rate : 384 kb/s
Channel(s) : 2 channels
Channel layout : L R
Sampling rate : 48.0 kHz
Frame rate : 31.250 FPS (1536 SPF)
Bit depth : 16 bits
Compression mode : Lossy
Stream size : 113 MiB (11)
Language : Polish
Service kind : Complete Main
Default : Yes
Forced : Yes
Kategoria:Seriale
Ocena: N/A
Rozmiar:1.00 GiB
Dodane:15/03/2019 08:47:00
Uploader:Ishimura
Statystyki:Seedów: 16   Leecherów: 0
Ostatnie Uaktualnienie03/05/2019 21:42:17


Brak komentarzy...


Wstecz
Uwaga!!!
Zaden z plikow znajdujacych sie w serwisie nie znajduje sie na serwerze. Torrenty sa wlasnoscia użytkownikow. Administrator serwisu ani wlasciciel serwera nie moze wiec poniesc konsekwencji za to co uzytkownicy wstawiaja, lub za to co czynia na stronie. Nie mozesz takze uzywac tego serwisu do rozpowszechniania lub sciagania materialow do ktorych nie masz odpowiednich praw lub licencji. Uzytkownicy odpowiedzialni są za przestrzeganie tych zasad. Ta strona nie zajmuje sie rozpowszechnianiem plikow chronionych prawem autorskim.

[ Execution time: 0.0211 sec. ] - [Memory usage: 1.93 MiB] - [ GZIP: disabled ]