Witamy Guest (Zaloguj) Zarejestruj się Przypomnij hasło Torrenty Kontakt Napisy PL


Torrent Kategorie
 » Wszystkie torrenty
Filmy :
 » DivX - XviD42154  
 » RMVB5167  
 » VCD - SVCD64  
 » DVD-R1952  
 » HDTV-HD-DVD849  
 » x 2643678  
 » 3D97  
 » 4K94  
 » Seriale14656  
Gry :
 » Gry PC9241  
 » Gry Konsole1397  
 » Poradniki i inne3  
Muzyka :
 » Albumy44984  
 » Teledyski/Koncerty3656  
Dokumenty :
 » E-Booki13534  
 » Audiobooki2755  
 » Komiksy645  
 » Czasopisma24  
Programy :
 » Windows5580  
 » Linux + Macintosh286  
Inne :
 » Dla Dzieci3076  
 » Sport894  
 » GSM - PDA899  
 » Manga - Anime2391  
 » Pozostałe - Różne1342  
Erotyka :
 » Filmy22650  
 » Zdjęcia92  
 » Czasopisma erotyczne16  
 » Gry erotyczne4  

Detale Torrenta
Nazwa plikuWonder.Woman.1984 *2020* [IMAX] [1080p] [WEB] [H264-NOGRP] [ENG] [zibi6248]
Torrent:Wonder.Woman.1984 *2020* [IMAX] [1080p] [WEB] [H264-NOGRP] [ENG] [zibi6248].torrent
Info Hash:bb8d5bffe4d9b05f08121dacd9a418815f730e93
Opis:

...( Info )...

Produkcja: Hiszpania, Kanada, Meksyk, USA, Wielka Brytania, Korea Południowa
Gatunek: Akcja, Sci-Fi
Premiera: 22 stycznia 2021 (Polska)
Reżyseria: Patty Jenkins
Scenariusz: Geoff Johns, Dave Callaham
https://www.youtube.com/watch?v=XW2E2Fnh52w

...( Opis )...

Wonder Woman przenosi się w czasie do lat 80. XX wieku. W swojej następnej wielkoekranowej przygodzie stawia czoło dwojgu zupełnie nowym przeciwnikom: Maxowi Lordowi i The Cheetah.

...( Obsada )...

★ Gal Gadot .... Diana Prince / Wonder Woman
★ Chris Pine .... Steve Trevor
★ Kristen Wiig .... Barbara Minerva / Cheetah
★ Pedro Pascal .... Maxwell Lord
★ Robin Wright .... Antiope
★ Connie Nielsen .... Hippolita
★ Lilly Aspell .... Młoda Diana
★ Amr Waked .... Emir Said Bin Abydos

...( Dane Techniczne )...

Video
ID : 1
Format : AVC
Format/Info : Advanced Video Codec
Format profile : High@L4
Format settings : CABAC / 4 Ref Frames
Format settings, CABAC : Yes
Format settings, Reference frames : 4 frames
Codec ID : V_MPEG4/ISO/AVC
Duration : 2 h 31 min
Bit rate : 5 194 kb/s
Width : 1 920 pixels
Height : 1 012 pixels
Display aspect ratio : 1.897
Frame rate mode : Constant
Frame rate : 23.976 (24000/1001) FPS
Color space : YUV
Chroma subsampling : 4:2:0
Bit depth : 8 bits
Scan type : Progressive
Bits/(Pixel*Frame) : 0.111
Stream size : 5.48 GiB (93%)
Language : English
Default : Yes
Forced : No
Color range : Limited
Color primaries : BT.709
Transfer characteristics : BT.709
Matrix coefficients : BT.709

Audio
ID : 2
Format : AC-3
Format/Info : Audio Coding 3
Commercial name : Dolby Digital
Codec ID : A_AC3
Duration : 2 h 31 min
Bit rate mode : Constant
Bit rate : 384 kb/s
Channel(s) : 6 channels
Channel layout : L R C LFE Ls Rs
Sampling rate : 48.0 kHz
Frame rate : 31.250 FPS (1536 SPF)
Compression mode : Lossy
Stream size : 415 MiB (7%)
Title : DD 5.1
Language : English
Service kind : Complete Main
Default : Yes
Forced : No

Text
ID : 3
Format : UTF-8
Codec ID : S_TEXT/UTF8
Codec ID/Info : UTF-8 Plain Text
Duration : 2 h 26 min
Bit rate : 45 b/s
Count of elements : 1864
Stream size : 49.1 KiB (0%)
Language : English
Default : Yes
Forced : No
Kategoria:x 264
Ocena: N/A
Rozmiar:5.89 GiB
Dodane:25/12/2020 18:47:18
Uploader:zibi6248
Statystyki:Seedów: 0   Leecherów: 0
Ostatnie Uaktualnienie23/01/2021 17:38:52


Brak komentarzy...


Wstecz
Uwaga!!!
Zaden z plikow znajdujacych sie w serwisie nie znajduje sie na serwerze. Torrenty sa wlasnoscia użytkownikow. Administrator serwisu ani wlasciciel serwera nie moze wiec poniesc konsekwencji za to co uzytkownicy wstawiaja, lub za to co czynia na stronie. Nie mozesz takze uzywac tego serwisu do rozpowszechniania lub sciagania materialow do ktorych nie masz odpowiednich praw lub licencji. Uzytkownicy odpowiedzialni są za przestrzeganie tych zasad. Ta strona nie zajmuje sie rozpowszechnianiem plikow chronionych prawem autorskim.

[ Execution time: 0.0141 sec. ] - [Memory usage: 1.97 MiB] - [ GZIP: disabled ]