Witamy Guest (Zaloguj) Zarejestruj się Przypomnij hasło Torrenty Kontakt Napisy PL


Torrent Kategorie
 » Wszystkie torrenty
Filmy :
 » DivX - XviD42138  
 » RMVB5167  
 » VCD - SVCD64  
 » DVD-R1952  
 » HDTV-HD-DVD849  
 » x 2643678  
 » 3D97  
 » 4K94  
 » Seriale14648  
Gry :
 » Gry PC9229  
 » Gry Konsole1397  
 » Poradniki i inne3  
Muzyka :
 » Albumy44975  
 » Teledyski/Koncerty3656  
Dokumenty :
 » E-Booki13534  
 » Audiobooki2715  
 » Komiksy645  
 » Czasopisma24  
Programy :
 » Windows5580  
 » Linux + Macintosh286  
Inne :
 » Dla Dzieci3076  
 » Sport894  
 » GSM - PDA899  
 » Manga - Anime2391  
 » Pozostałe - Różne1341  
Erotyka :
 » Filmy22650  
 » Zdjęcia92  
 » Czasopisma erotyczne16  
 » Gry erotyczne4  

Detale Torrenta
Nazwa plikuThe Mandalorian 2020 [S02] [1080p.WEBRip.DDP5.1.Atmos.x264-MZABI] [MULTi] [Napisy PL]
Torrent:The Mandalorian 2020 [S02] [1080p.WEBRip.DDP5.1.Atmos.x264-MZABI] [MULTi] [Napisy PL].torrent
Info Hash:cb1de2bdf61cc8cc0f9011dcccc27324231bd30e
Opis:

Info
https://www.filmweb.pl/serial/The+Mandalorian-2019-813197
https://www.imdb.com/title/tt8111088/
https://fdb.pl/film/864916-the-mandalorian
https://naekranie.pl/seriale/the-mandalorian
Tytuł: The Mandalorian / Sezon 2 [2020] [Epizodów:8]
Gatunek: Akcja, Przygodowy, Sci-Fi, Fantasy
Produkcja: USA
Stacja telewizyjna: Disney+
Data premiery serialu: 12.11.2019 - Świat
Czas trwania odcinka około 38-52 min.
Twórcy: Jon Favreau

Opis
Akcja serialu The Mandalorian rozgrywa się po upadku Imperium i przed powstaniem Najwyższego Porządku. Podążamy za samotnym strzelcem w odległych zakątkach galaktyki, daleko od autorytetu Nowej Republiki. Jest on łowcą nagród zatrudnionym przez Greefa do wykonania określonego zadania.

Obsada


Screenshot / Wideo




Dane Techniczne
MediaInfo
Video
ID : 1
Format : AVC
Format/Info : Advanced Video Codec
Format profile : HighL4.1
Format settings : CABAC / 5 Ref Frames
Format settings, CABAC : Yes
Format settings, Reference frames : 5 frames
Codec ID : V_MPEG4/ISO/AVC
Duration : 51 min 51 s
Bit rate : 12.7 Mb/s
Width : 1 920 pixels
Height : 1 080 pixels
Display aspect ratio : 16:9
Frame rate mode : Constant
Frame rate : 23.976 (24000/1001) FPS
Color space : YUV
Chroma subsampling : 4:2:0
Bit depth : 8 bits
Scan type : Progressive
Bits/(PixelFrame) : 0.256
Stream size : 4.61 GiB (94)
Writing library : x264 core 160 r3000 33f9e14
Encoding settings : cabac=1 / ref=5 / deblock=1:-3:-3 / analyse=0x3:0x133 / me=umh / subme=10 / psy=1 / psy_rd=1.00:0.00 / mixed_ref=1 / me_range=32 / chroma_me=1 / trellis=2 / 8x8dct=1 / cqm=0 / deadzone=21,11 / fast_pskip=0 / chroma_qp_offset=-2 / threads=34 / lookahead_threads=5 / sliced_threads=0 / nr=0 / decimate=0 / interlaced=0 / bluray_compat=0 / constrained_intra=0 / bframes=8 / b_pyramid=2 / b_adapt=2 / b_bias=0 / direct=3 / weightb=1 / open_gop=0 / weightp=2 / keyint=250 / keyint_min=23 / scenecut=40 / intra_refresh=0 / rc=crf / mbtree=0 / crf=14.5 / qcomp=0.60 / qpmin=0 / qpmax=69 / qpstep=4 / ip_ratio=1.30 / pb_ratio=1.20 / aq=3:0.80
Default : Yes
Forced : No

Audio
ID : 2
Format : E-AC-3 JOC
Format/Info : Enhanced AC-3 with Joint Object Coding
Commercial name : Dolby Digital Plus with Dolby Atmos
Codec ID : A_EAC3
Duration : 51 min 51 s
Bit rate mode : Constant
Bit rate : 768 kb/s
Channel(s) : 6 channels
Channel layout : L R C LFE Ls Rs
Sampling rate : 48.0 kHz
Frame rate : 31.250 FPS (1536 SPF)
Compression mode : Lossy
Stream size : 285 MiB (6)
Title : English
Language : English
Service kind : Complete Main
Default : Yes
Forced : No
Complexity index : 16
Number of dynamic objects : 15
Bed channel count : 1 channel
Bed channel configuration : LFE

Text #1
ID : 3
Format : UTF-8
Codec ID : S_TEXT/UTF8
Codec ID/Info : UTF-8 Plain Text
Duration : 48 min 13 s
Bit rate : 36 b/s
Count of elements : 349
Stream size : 12.8 KiB (0)
Title : English
Language : English
Default : No
Forced : No

Text #2
ID : 4
Format : UTF-8
Codec ID : S_TEXT/UTF8
Codec ID/Info : UTF-8 Plain Text
Duration : 48 min 25 s
Bit rate : 43 b/s
Count of elements : 481
Stream size : 15.4 KiB (0)
Title : English [SDH]
Language : English
Default : No
Forced : No

Text #3
ID : 5
Format : UTF-8
Codec ID : S_TEXT/UTF8
Codec ID/Info : UTF-8 Plain Text
Duration : 51 min 37 s
Bit rate : 28 b/s
Count of elements : 343
Stream size : 11.0 KiB (0)
Title : Brazilian Portuguese
Language : Portuguese
Default : No
Forced : No

Text #4
ID : 6
Format : UTF-8
Codec ID : S_TEXT/UTF8
Codec ID/Info : UTF-8 Plain Text
Duration : 51 min 37 s
Bit rate : 28 b/s
Count of elements : 255
Stream size : 10.8 KiB (0)
Title : Danish
Language : Danish
Default : No
Forced : No

Text #5
ID : 7
Format : UTF-8
Codec ID : S_TEXT/UTF8
Codec ID/Info : UTF-8 Plain Text
Duration : 51 min 37 s
Bit rate : 27 b/s
Count of elements : 339
Stream size : 10.4 KiB (0)
Title : German
Language : German
Default : No
Forced : No

Text #6
ID : 8
Format : UTF-8
Codec ID : S_TEXT/UTF8
Codec ID/Info : UTF-8 Plain Text
Duration : 51 min 37 s
Bit rate : 25 b/s
Count of elements : 342
Stream size : 9.78 KiB (0)
Title : European Spanish
Language : Spanish
Default : No
Forced : No

Text #7
ID : 9
Format : UTF-8
Codec ID : S_TEXT/UTF8
Codec ID/Info : UTF-8 Plain Text
Duration : 51 min 37 s
Bit rate : 28 b/s
Count of elements : 344
Stream size : 10.7 KiB (0)
Title : Finnish
Language : Finnish
Default : No
Forced : No

Text #8
ID : 10
Format : UTF-8
Codec ID : S_TEXT/UTF8
Codec ID/Info : UTF-8 Plain Text
Duration : 51 min 37 s
Bit rate : 26 b/s
Count of elements : 335
Stream size : 9.84 KiB (0)
Title : French
Language : French
Default : No
Forced : No

Text #9
ID : 11
Format : UTF-8
Codec ID : S_TEXT/UTF8
Codec ID/Info : UTF-8 Plain Text
Duration : 51 min 37 s
Bit rate : 28 b/s
Count of elements : 343
Stream size : 10.7 KiB (0)
Title : Italian
Language : Italian
Default : No
Forced : No

Text #10
ID : 12
Format : UTF-8
Codec ID : S_TEXT/UTF8
Codec ID/Info : UTF-8 Plain Text
Duration : 51 min 37 s
Bit rate : 30 b/s
Count of elements : 299
Stream size : 11.4 KiB (0)
Title : Dutch
Language : Dutch
Default : No
Forced : No

Text #11
ID : 13
Format : UTF-8
Codec ID : S_TEXT/UTF8
Codec ID/Info : UTF-8 Plain Text
Duration : 51 min 37 s
Bit rate : 25 b/s
Count of elements : 343
Stream size : 9.67 KiB (0)
Title : Norwegian
Language : Norwegian
Default : No
Forced : No

Text #12
ID : 14
Format : UTF-8
Codec ID : S_TEXT/UTF8
Codec ID/Info : UTF-8 Plain Text
Duration : 51 min 37 s
Bit rate : 26 b/s
Count of elements : 342
Stream size : 10.2 KiB (0)
Title : Polish
Language : Polish
Default : No
Forced : No

Text #13
ID : 15
Format : UTF-8
Codec ID : S_TEXT/UTF8
Codec ID/Info : UTF-8 Plain Text
Duration : 51 min 37 s
Bit rate : 28 b/s
Count of elements : 341
Stream size : 10.9 KiB (0)
Title : Portuguese
Language : Portuguese
Default : No
Forced : No

Text #14
ID : 16
Format : UTF-8
Codec ID : S_TEXT/UTF8
Codec ID/Info : UTF-8 Plain Text
Duration : 51 min 37 s
Bit rate : 26 b/s
Count of elements : 343
Stream size : 10.2 KiB (0)
Title : Spanish
Language : Spanish
Default : No
Forced : No

Text #15
ID : 17
Format : UTF-8
Codec ID : S_TEXT/UTF8
Codec ID/Info : UTF-8 Plain Text
Duration : 51 min 37 s
Bit rate : 30 b/s
Count of elements : 298
Stream size : 11.4 KiB (0)
Title : Swedish
Language : Swedish
Default : No
Forced : No
Kategoria:Seriale
Ocena: N/A
Rozmiar:31.95 GiB
Dodane:28/12/2020 09:30:02
Uploader:Ishimura
Statystyki:Seedów: 277   Leecherów: 35
Ostatnie Uaktualnienie22/02/2021 19:46:44


Brak komentarzy...


Wstecz
Uwaga!!!
Zaden z plikow znajdujacych sie w serwisie nie znajduje sie na serwerze. Torrenty sa wlasnoscia użytkownikow. Administrator serwisu ani wlasciciel serwera nie moze wiec poniesc konsekwencji za to co uzytkownicy wstawiaja, lub za to co czynia na stronie. Nie mozesz takze uzywac tego serwisu do rozpowszechniania lub sciagania materialow do ktorych nie masz odpowiednich praw lub licencji. Uzytkownicy odpowiedzialni są za przestrzeganie tych zasad. Ta strona nie zajmuje sie rozpowszechnianiem plikow chronionych prawem autorskim.

[ Execution time: 0.0361 sec. ] - [Memory usage: 1.97 MiB] - [ GZIP: disabled ]