Witamy Guest (Zaloguj) Zarejestruj się Przypomnij hasło Torrenty Kontakt Napisy PL


Torrent Kategorie
 » Wszystkie torrenty
Filmy :
 » DivX - XviD49692  
 » RMVB5168  
 » VCD - SVCD64  
 » DVD-R2074  
 » HDTV-HD-DVD890  
 » x 2644053  
 » 3D98  
 » 4K155  
 » Seriale16660  
Gry :
 » Gry PC11509  
 » Gry Konsole1447  
 » Poradniki i inne3  
Muzyka :
 » Albumy47996  
 » Teledyski/Koncerty3848  
Dokumenty :
 » E-Booki14083  
 » Audiobooki4776  
 » Komiksy645  
 » Czasopisma24  
Programy :
 » Windows6135  
 » Linux + Macintosh292  
Inne :
 » Dla Dzieci3156  
 » Sport1140  
 » GSM - PDA904  
 » Manga - Anime2391  
 » Pozostałe - Różne1353  
Erotyka :
 » Filmy23178  
 » Zdjęcia92  
 » Czasopisma erotyczne17  
 » Gry erotyczne15  

Detale Torrenta
Nazwa plikuThe Mandalorian [S02E02] [1080p] [DSNP] [WEB] [H264] [PHOENiX] [Napisy PL] [Multi]
Torrent:The Mandalorian [S02E02] [1080p] [DSNP] [WEB] [H264] [PHOENiX] [Napisy PL] [Multi].torrent
Info Hash:3a7c3a5dd0b0fb5e3c86f9ac7137f958b7a4928f
Opis:

Info

Produkcja: USA
Gatunek: Sci-Fi
Twórcy: Jon Favreau
Platforma: Disnay +
Premiera: 30 październik 2020

Opis

Po historiach Jango i Boba Fettów w uniwersum Gwiezdnych Wojen pojawia się kolejny wojownik. The Mandalorian jest osadzony po upadku Imperium i przed ujawnieniem się Najwyższego Porządku. Jest to opowieść o samotnym rewolwerowcu osadzona w odległych zakątkach galaktyki daleko od wpływów Nowej Republiki

Obsada

Pedro Pascal .... Mandalorianin
Gina Carano .... Cara Dune
Nick Nolte ....
Giancarlo Esposito ....
Werner Herzog ....
Carl Weathers .... Greef Carga
Emily Swallow ....
Omid Abtahi ....

https://www.youtube.com/watch?v=eW7Twd85m2g

Dane Techniczne

Video
ID : 1
Format : AVC
Format/Info : Advanced Video Codec
Format profile : HighL4
Format settings : CABAC / 4 Ref Frames
Format settings, CABAC : Yes
Format settings, Reference frames : 4 frames
Codec ID : V_MPEG4/ISO/AVC
Duration : 39 min 32 s
Bit rate mode : Variable
Bit rate : 8 442 kb/s
Maximum bit rate : 12.7 Mb/s
Width : 1 920 pixels
Height : 1 080 pixels
Display aspect ratio : 16:9
Frame rate mode : Constant
Frame rate : 23.976 (24000/1001) FPS
Color space : YUV
Chroma subsampling : 4:2:0
Bit depth : 8 bits
Scan type : Progressive
Bits/(PixelFrame) : 0.170
Stream size : 2.33 GiB (92)
Language : English
Default : Yes
Forced : No
Color range : Limited
Color primaries : BT.709
Transfer characteristics : BT.709
Matrix coefficients : BT.709

Audio
ID : 2
Format : E-AC-3 JOC
Format/Info : Enhanced AC-3 with Joint Object Coding
Commercial name : Dolby Digital Plus with Dolby Atmos
Codec ID : A_EAC3
Duration : 39 min 32 s
Bit rate mode : Constant
Bit rate : 768 kb/s
Channel(s) : 6 channels
Channel layout : L R C LFE Ls Rs
Sampling rate : 48.0 kHz
Frame rate : 31.250 FPS (1536 SPF)
Compression mode : Lossy
Stream size : 217 MiB (8)
Title : English
Language : English
Service kind : Complete Main
Default : Yes
Forced : No
Complexity index : 16
Number of dynamic objects : 15
Bed channel count : 1 channel
Bed channel configuration : LFE

Text #1
ID : 3
Format : UTF-8
Codec ID : S_TEXT/UTF8
Codec ID/Info : UTF-8 Plain Text
Duration : 36 min 29 s
Bit rate : 39 b/s
Count of elements : 315
Stream size : 10.6 KiB (0)
Title : English (CC)
Language : English
Default : Yes
Forced : No

Text #2
ID : 4
Format : UTF-8
Codec ID : S_TEXT/UTF8
Codec ID/Info : UTF-8 Plain Text
Duration : 39 min 12 s
Bit rate : 24 b/s
Count of elements : 180
Stream size : 7.09 KiB (0)
Title : Dansk
Language : Danish
Default : No
Forced : No

Text #3
ID : 5
Format : UTF-8
Codec ID : S_TEXT/UTF8
Codec ID/Info : UTF-8 Plain Text
Duration : 39 min 12 s
Bit rate : 24 b/s
Count of elements : 223
Stream size : 7.06 KiB (0)
Title : Deutsch
Language : German
Default : No
Forced : No

Text #4
ID : 6
Format : UTF-8
Codec ID : S_TEXT/UTF8
Codec ID/Info : UTF-8 Plain Text
Duration : 39 min 12 s
Bit rate : 24 b/s
Count of elements : 200
Stream size : 7.17 KiB (0)
Title : Espa?ol (Latinoamericano)
Language : Spanish
Default : No
Forced : No

Text #5
ID : 7
Format : UTF-8
Codec ID : S_TEXT/UTF8
Codec ID/Info : UTF-8 Plain Text
Duration : 39 min 12 s
Bit rate : 23 b/s
Count of elements : 200
Stream size : 6.77 KiB (0)
Title : Espa?ol
Language : Spanish
Default : No
Forced : No

Text #6
ID : 8
Format : UTF-8
Codec ID : S_TEXT/UTF8
Codec ID/Info : UTF-8 Plain Text
Duration : 39 min 12 s
Bit rate : 25 b/s
Count of elements : 201
Stream size : 7.32 KiB (0)
Title : Suomi
Language : Finnish
Default : No
Forced : No

Text #7
ID : 9
Format : UTF-8
Codec ID : S_TEXT/UTF8
Codec ID/Info : UTF-8 Plain Text
Duration : 39 min 12 s
Bit rate : 23 b/s
Count of elements : 213
Stream size : 6.61 KiB (0)
Title : Franais
Language : French
Default : No
Forced : No

Text #8
ID : 10
Format : UTF-8
Codec ID : S_TEXT/UTF8
Codec ID/Info : UTF-8 Plain Text
Duration : 39 min 12 s
Bit rate : 26 b/s
Count of elements : 200
Stream size : 7.47 KiB (0)
Title : Italiano
Language : Italian
Default : No
Forced : No

Text #9
ID : 11
Format : UTF-8
Codec ID : S_TEXT/UTF8
Codec ID/Info : UTF-8 Plain Text
Duration : 39 min 12 s
Bit rate : 26 b/s
Count of elements : 183
Stream size : 7.65 KiB (0)
Title : Nederlands
Language : Dutch
Default : No
Forced : No

Text #10
ID : 12
Format : UTF-8
Codec ID : S_TEXT/UTF8
Codec ID/Info : UTF-8 Plain Text
Duration : 39 min 12 s
Bit rate : 22 b/s
Count of elements : 200
Stream size : 6.47 KiB (0)
Title : Norsk
Language : Norwegian
Default : No
Forced : No

Text #11
ID : 13
Format : UTF-8
Codec ID : S_TEXT/UTF8
Codec ID/Info : UTF-8 Plain Text
Duration : 39 min 12 s
Bit rate : 25 b/s
Count of elements : 201
Stream size : 7.27 KiB (0)
Title : Polski
Language : Polish
Default : No
Forced : No

Text #12
ID : 14
Format : UTF-8
Codec ID : S_TEXT/UTF8
Codec ID/Info : UTF-8 Plain Text
Duration : 39 min 12 s
Bit rate : 27 b/s
Count of elements : 200
Stream size : 7.89 KiB (0)
Title : Portugu?s (Brasil)
Language : Portuguese
Default : No
Forced : No

Text #13
ID : 15
Format : UTF-8
Codec ID : S_TEXT/UTF8
Codec ID/Info : UTF-8 Plain Text
Duration : 39 min 12 s
Bit rate : 27 b/s
Count of elements : 200
Stream size : 7.79 KiB (0)
Title : Portugu?s
Language : Portuguese
Default : No
Forced : No

Text #14
ID : 16
Format : UTF-8
Codec ID : S_TEXT/UTF8
Codec ID/Info : UTF-8 Plain Text
Duration : 39 min 12 s
Bit rate : 26 b/s
Count of elements : 185
Stream size : 7.70 KiB (0)
Title : Svenska
Language : Swedish
Default : No
Forced : No

Text #15
ID : 17
Format : UTF-8
Codec ID : S_TEXT/UTF8
Codec ID/Info : UTF-8 Plain Text
Duration : 4 min 56 s
Bit rate : 1 b/s
Count of elements : 2
Stream size : 52.0 Bytes (0)
Title : Deutsch (Signs-&-Songs)
Language : German
Default : No
Forced : No

Text #16
ID : 18
Format : UTF-8
Codec ID : S_TEXT/UTF8
Codec ID/Info : UTF-8 Plain Text
Duration : 4 min 56 s
Bit rate : 1 b/s
Count of elements : 2
Stream size : 56.0 Bytes (0)
Title : Espa?ol (Signs-&-Songs)
Language : Spanish
Default : No
Forced : No

Text #17
ID : 19
Format : UTF-8
Codec ID : S_TEXT/UTF8
Codec ID/Info : UTF-8 Plain Text
Duration : 4 min 56 s
Bit rate : 1 b/s
Count of elements : 2
Stream size : 58.0 Bytes (0)
Title : Espa?ol (Signs-&-Songs)
Language : Spanish
Default : No
Forced : No

Text #18
ID : 20
Format : UTF-8
Codec ID : S_TEXT/UTF8
Codec ID/Info : UTF-8 Plain Text
Duration : 4 min 56 s
Bit rate : 1 b/s
Count of elements : 2
Stream size : 43.0 Bytes (0)
Title : Franais (Signs-&-Songs)
Language : French
Default : No
Forced : No

Text #19
ID : 21
Format : UTF-8
Codec ID : S_TEXT/UTF8
Codec ID/Info : UTF-8 Plain Text
Duration : 4 min 56 s
Bit rate : 1 b/s
Count of elements : 2
Stream size : 50.0 Bytes (0)
Title : Italiano (Signs-&-Songs)
Language : Italian
Default : No
Forced : No

Text #20
ID : 22
Format : UTF-8
Codec ID : S_TEXT/UTF8
Codec ID/Info : UTF-8 Plain Text
Duration : 4 min 56 s
Bit rate : 1 b/s
Count of elements : 3
Stream size : 61.0 Bytes (0)
Title : Polski (Signs-&-Songs)
Language : Polish
Default : No
Forced : No

Text #21
ID : 23
Format : UTF-8
Codec ID : S_TEXT/UTF8
Codec ID/Info : UTF-8 Plain Text
Duration : 4 min 56 s
Bit rate : 1 b/s
Count of elements : 2
Stream size : 59.0 Bytes (0)
Title : Portugu?s (Signs-&-Songs)
Language : Portuguese
Default : No
Forced : No
Kategoria:Seriale
Ocena: N/A
Rozmiar:2.54 GiB
Dodane:28/12/2020 10:14:03
Uploader:Ishimura
Statystyki:Seedów: 339   Leecherów: 9
Ostatnie Uaktualnienie15/11/2021 01:08:40


Brak komentarzy...


Wstecz
Uwaga!!!
Zaden z plikow znajdujacych sie w serwisie nie znajduje sie na serwerze. Torrenty sa wlasnoscia użytkownikow. Administrator serwisu ani wlasciciel serwera nie moze wiec poniesc konsekwencji za to co uzytkownicy wstawiaja, lub za to co czynia na stronie. Nie mozesz takze uzywac tego serwisu do rozpowszechniania lub sciagania materialow do ktorych nie masz odpowiednich praw lub licencji. Uzytkownicy odpowiedzialni są za przestrzeganie tych zasad. Ta strona nie zajmuje sie rozpowszechnianiem plikow chronionych prawem autorskim.

[ Execution time: 0.0211 sec. ] - [Memory usage: 1.97 MiB] - [ GZIP: disabled ]