Witamy Guest (Zaloguj) Zarejestruj się Przypomnij hasło Torrenty Kontakt Napisy PL


Torrent Kategorie
 » Wszystkie torrenty
Filmy :
 » DivX - XviD42137  
 » RMVB5167  
 » VCD - SVCD64  
 » DVD-R1952  
 » HDTV-HD-DVD849  
 » x 2643678  
 » 3D97  
 » 4K94  
 » Seriale14647  
Gry :
 » Gry PC9229  
 » Gry Konsole1397  
 » Poradniki i inne3  
Muzyka :
 » Albumy44975  
 » Teledyski/Koncerty3656  
Dokumenty :
 » E-Booki13534  
 » Audiobooki2715  
 » Komiksy645  
 » Czasopisma24  
Programy :
 » Windows5580  
 » Linux + Macintosh286  
Inne :
 » Dla Dzieci3076  
 » Sport894  
 » GSM - PDA899  
 » Manga - Anime2391  
 » Pozostałe - Różne1341  
Erotyka :
 » Filmy22650  
 » Zdjęcia92  
 » Czasopisma erotyczne16  
 » Gry erotyczne4  

Detale Torrenta
Nazwa plikuBastion - The Stand S01E03 [WEBRip.x264-ION10] [ENG] [Sub.ENG]
Torrent:Bastion - The Stand S01E03 [WEBRip.x264-ION10] [ENG] [Sub.ENG].torrent
Info Hash:820456d2db9bd3b8e34376cc770fdd6587a0b4f0
Opis:



Info
https://www.imdb.com/title/tt1831804/
https://www.tvmaze.com/shows/35790/the-stand
https://www.filmweb.pl/serial/Bastion-2020-823343
Na podstawie: Stephen King &quotBastion&quot (powieść)
Premiera: 17 grudnia 2020 (Świat)
Produkcja: USA
Stacja: CBS
Gatunek: Fantasy, Dramat, Akcja
Reżyser: Mick Garris

Opis
Po tym jak świat popada w ruinę z powodu plagi, za którą stoi człowiek, między ocalałymi zaczyna się toczyć bitwa biblijnych rozmiarów.

Obsada


James Marsden .... Stu Redman
Amber Heard .... Nadine Cross
Greg Kinnear .... Glen Bateman
Odessa Young .... Frannie Goldsmith
Whoopi Goldberg .... Matka Abagail
Henry Zaga .... Nick Andros
Alexander Skarsg?rd .... Randall Flagg
Jovan Adepo .... Larry Underwood

Screenshot / Wideo




https://www.youtube.com/watch?v=l

Dane Techniczne
MediaInfo
Video
ID : 1
Format : AVC
Format/Info : Advanced Video Codec
Format profile : HighL3.1
Format settings : CABAC / 5 Ref Frames
Format settings, CABAC : Yes
Format settings, Reference frames : 5 frames
Codec ID : avc1
Codec ID/Info : Advanced Video Coding
Duration : 53 min 12 s
Bit rate : 1 100 kb/s
Width : 720 pixels
Height : 400 pixels
Display aspect ratio : 16:9
Frame rate mode : Constant
Frame rate : 24.000 FPS
Color space : YUV
Chroma subsampling : 4:2:0
Bit depth : 8 bits
Scan type : Progressive
Bits/(PixelFrame) : 0.159
Stream size : 414 MiB (81)
Title : RARBG - The.Stand.S01E03.WEBRip.x264-ION10
Writing library : x264 core 152 r2851M ba24899
Encoding settings : cabac=1 / ref=5 / deblock=1:-1:-1 / analyse=0x3:0x113 / me=umh / subme=9 / psy=1 / psy_rd=1.00:0.15 / mixed_ref=1 / me_range=16 / chroma_me=1 / trellis=2 / 8x8dct=1 / cqm=0 / deadzone=21,11 / fast_pskip=1 / chroma_qp_offset=-3 / threads=12 / lookahead_threads=1 / sliced_threads=0 / nr=0 / decimate=1 / interlaced=0 / bluray_compat=0 / constrained_intra=0 / bframes=3 / b_pyramid=2 / b_adapt=2 / b_bias=0 / direct=3 / weightb=1 / open_gop=0 / weightp=2 / keyint=250 / keyint_min=24 / scenecut=40 / intra_refresh=0 / rc_lookahead=50 / rc=abr / mbtree=1 / bitrate=1100 / ratetol=1.0 / qcomp=0.60 / qpmin=0 / qpmax=69 / qpstep=4 / ip_ratio=1.40 / aq=1:1.00
Language : English
Encoded date : UTC 2020-12-31 08:17:09
Tagged date : UTC 2020-12-31 08:17:09
Codec configuration box : avcC

Audio
ID : 2
Format : AAC LC
Format/Info : Advanced Audio Codec Low Complexity
Codec ID : mp4a-40-2
Duration : 53 min 12 s
Duration_LastFrame : -11 ms
Bit rate mode : Constant
Bit rate : 256 kb/s
Channel(s) : 2 channels
Channel layout : L R
Sampling rate : 48.0 kHz
Frame rate : 46.875 FPS (1024 SPF)
Compression mode : Lossy
Stream size : 97.4 MiB (19)
Title : RARBG - The.Stand.S01E03.WEBRip.x264-ION10
Language : English
Default : Yes
Alternate group : 1
Encoded date : UTC 2020-12-31 08:17:09
Tagged date : UTC 2020-12-31 08:17:09
Kategoria:Seriale
Ocena: N/A
Rozmiar:513.76 MiB
Dodane:08/01/2021 03:12:02
Uploader:Ishimura
Statystyki:Seedów: 212   Leecherów: 4
Ostatnie Uaktualnienie23/01/2021 08:22:14


Brak komentarzy...


Wstecz
Uwaga!!!
Zaden z plikow znajdujacych sie w serwisie nie znajduje sie na serwerze. Torrenty sa wlasnoscia użytkownikow. Administrator serwisu ani wlasciciel serwera nie moze wiec poniesc konsekwencji za to co uzytkownicy wstawiaja, lub za to co czynia na stronie. Nie mozesz takze uzywac tego serwisu do rozpowszechniania lub sciagania materialow do ktorych nie masz odpowiednich praw lub licencji. Uzytkownicy odpowiedzialni są za przestrzeganie tych zasad. Ta strona nie zajmuje sie rozpowszechnianiem plikow chronionych prawem autorskim.

[ Execution time: 0.0192 sec. ] - [Memory usage: 1.97 MiB] - [ GZIP: disabled ]