Witamy Guest (Zaloguj) Zarejestruj się Przypomnij hasło Torrenty Kontakt Napisy PL


Torrent Kategorie
 » Wszystkie torrenty
Filmy :
 » DivX - XviD49787  
 » RMVB5168  
 » VCD - SVCD64  
 » DVD-R2074  
 » HDTV-HD-DVD891  
 » x 2644053  
 » 3D98  
 » 4K156  
 » Seriale16668  
Gry :
 » Gry PC11518  
 » Gry Konsole1447  
 » Poradniki i inne3  
Muzyka :
 » Albumy48020  
 » Teledyski/Koncerty3848  
Dokumenty :
 » E-Booki14089  
 » Audiobooki4797  
 » Komiksy645  
 » Czasopisma24  
Programy :
 » Windows6136  
 » Linux + Macintosh292  
Inne :
 » Dla Dzieci3156  
 » Sport1143  
 » GSM - PDA904  
 » Manga - Anime2391  
 » Pozostałe - Różne1353  
Erotyka :
 » Filmy23178  
 » Zdjęcia92  
 » Czasopisma erotyczne17  
 » Gry erotyczne15  

Detale Torrenta
Nazwa plikuWikingowie - Vikings 2019 [S06] [COMPLETE] [720p.AMZN.WEBRip.DDP5.1.x264-NTb] [ENG] [Sub.ENG]
Torrent:Wikingowie - Vikings 2019 [S06] [COMPLETE] [720p.AMZN.WEBRip.DDP5.1.x264-NTb] [ENG] [Sub.ENG].torrent
Info Hash:62bafff269cdfb71c92a4f01979938c95c73a641
Opis:

Info
Tytuł:Wikingowie - Vikings / Sezon 6 [2019] [Epizodów:20]
Gatunek: Akcja, Dramat historyczny
Produkcja: Irlandia, Kanada
Stacja telewizyjna: History Channel
Data premiery serialu: 3 marca 2013 r. (USA)
Czas trwania odcinka około 45 min.
Reżyseria: Ciaran Donnelly, Johan Renck, Ken Girotti
Scenariusz: Michael Hirst
http://filmweb.pl/serial/Vikings-2013-659055
http://naekranie.pl/seriale/vikings
http://fdb.pl/film/412613-wikingowie
http://imdb.com/title/tt2306299/

Opis
Po zwycięstwie nad Ivarem i odzyskaniu Kattegat Bjrn (Alexander Ludwig) osiągnął swój cel. Jedyne, czego mu zabrakło, to schwytania szalonego brata. W premierze 6. sezonu &quotWikingów&quot bardzo dużo dzieje się właśnie w Kattegat, w którym nowy król musi zaprowadzić nowe porządki i z pewnością nie naśladuje stylu Ivara. Bjrna Żelaznobokiego czekają tu jednak trudne decyzje nie tylko chodzi o ludzi, którzy znajdywali aż nadmierną przyjemność w pomaganiu Ivarowi w jego szaleństwach.

Obsada


Screenshot / Wideo




Dane Techniczne
MediaInfo
Video
ID : 1
Format : AVC
Format/Info : Advanced Video Codec
Format profile : HighL3.1
Format settings : CABAC / 4 Ref Frames
Format settings, CABAC : Yes
Format settings, Reference frames : 4 frames
Codec ID : V_MPEG4/ISO/AVC
Duration : 46 min 25 s
Bit rate mode : Constant
Bit rate : 4 453 kb/s
Nominal bit rate : 6 000 kb/s
Width : 1 280 pixels
Height : 720 pixels
Display aspect ratio : 16:9
Frame rate mode : Constant
Frame rate : 23.976 (24000/1001) FPS
Color space : YUV
Chroma subsampling : 4:2:0
Bit depth : 8 bits
Scan type : Progressive
Bits/(PixelFrame) : 0.202
Stream size : 1.44 GiB (87)
Default : Yes
Forced : No
Color range : Limited
Color primaries : BT.709
Transfer characteristics : BT.709
Matrix coefficients : BT.709

Audio
ID : 2
Format : E-AC-3
Format/Info : Enhanced AC-3
Commercial name : Dolby Digital Plus
Codec ID : A_EAC3
Duration : 46 min 25 s
Bit rate mode : Constant
Bit rate : 640 kb/s
Channel(s) : 6 channels
Channel layout : L R C LFE Ls Rs
Sampling rate : 48.0 kHz
Frame rate : 31.250 FPS (1536 SPF)
Compression mode : Lossy
Stream size : 213 MiB (13)
Language : English
Service kind : Complete Main
Default : Yes
Forced : No

Text
ID : 3
Format : UTF-8
Codec ID : S_TEXT/UTF8
Codec ID/Info : UTF-8 Plain Text
Duration : 45 min 25 s
Bit rate : 35 b/s
Count of elements : 490
Stream size : 11.7 KiB (0)
Title : SDH
Language : English
Default : No
Forced : No
Kategoria:Seriale
Ocena: N/A
Rozmiar:27.08 GiB
Dodane:13/01/2021 04:52:02
Uploader:Ishimura
Statystyki:Seedów: 12   Leecherów: 11
Ostatnie Uaktualnienie08/11/2021 08:54:28


Brak komentarzy...


Wstecz
Uwaga!!!
Zaden z plikow znajdujacych sie w serwisie nie znajduje sie na serwerze. Torrenty sa wlasnoscia użytkownikow. Administrator serwisu ani wlasciciel serwera nie moze wiec poniesc konsekwencji za to co uzytkownicy wstawiaja, lub za to co czynia na stronie. Nie mozesz takze uzywac tego serwisu do rozpowszechniania lub sciagania materialow do ktorych nie masz odpowiednich praw lub licencji. Uzytkownicy odpowiedzialni są za przestrzeganie tych zasad. Ta strona nie zajmuje sie rozpowszechnianiem plikow chronionych prawem autorskim.

[ Execution time: 0.0135 sec. ] - [Memory usage: 1.97 MiB] - [ GZIP: disabled ]