Witamy Guest (Zaloguj) Zarejestruj się Przypomnij hasło Torrenty Kontakt Napisy PL


Torrent Kategorie
 » Wszystkie torrenty
Filmy :
 » DivX - XviD42154  
 » RMVB5167  
 » VCD - SVCD64  
 » DVD-R1952  
 » HDTV-HD-DVD849  
 » x 2643678  
 » 3D97  
 » 4K94  
 » Seriale14656  
Gry :
 » Gry PC9241  
 » Gry Konsole1397  
 » Poradniki i inne3  
Muzyka :
 » Albumy44984  
 » Teledyski/Koncerty3656  
Dokumenty :
 » E-Booki13534  
 » Audiobooki2755  
 » Komiksy645  
 » Czasopisma24  
Programy :
 » Windows5580  
 » Linux + Macintosh286  
Inne :
 » Dla Dzieci3076  
 » Sport894  
 » GSM - PDA899  
 » Manga - Anime2391  
 » Pozostałe - Różne1342  
Erotyka :
 » Filmy22650  
 » Zdjęcia92  
 » Czasopisma erotyczne16  
 » Gry erotyczne4  

Detale Torrenta
Nazwa plikuBatman Soul of the Dragon 2021 [1080p.WEBRip.DDP5.1.x264-CM] [ENG] [MULTi.Sub: ENG]
Torrent:Batman Soul of the Dragon 2021 [1080p.WEBRip.DDP5.1.x264-CM] [ENG] [MULTi.Sub: ENG].torrent
Info Hash:5eecbf82fe062f3c139a4695f9aad95af261d947
Opis:

Info
https://www.imdb.com/title/tt12885852/
https://www.filmweb.pl/film/Batman3A+Soul+of+the+Dragon-2021-862074
Data pierwszego pokazu: 26 stycznia 2021
Reżyser: Sam Liu
Autor muzyki: Joachim Horsley
Autor pomysłu: Bob Kane, Bill Finger
Studia filmowe: DC Comics, Warner Bros. Animation

https://www.youtube.com/watch?v=am4LKn7ddx4

Opis
Richard Dragon, Bronze Tiger i Lady Shiva oraz Mroczny Rycerz posiadają tego samego mistrza, który uczył ich sztuk walki i dyscypliny. Człowiek ten ginie w niewyjaśnionych okolicznościach. Po odkryciu przeklętej relikwii, która może mieć coś wspólnego ze śmiercią mistrza wspomniani bohaterowie muszą walczyć o odzyskanie przedmiotu, zanim wpadnie on w niepowołane ręce.

Obsada
David Giuntoli jako Bruce Wayne / Batman
Mark Dacascos jako Richard Dragon
Kelly Hu jako Lady Shiva . Hu wcześniej wyraził postać w grze wideo Batman: Arkham Origins .
Michael Jai White jako Ben Turner / Brązowy Tygrys . White wcześniej wcielił się w postać w serialu CW TV Arrow .
James Hong jako O-Sensei
Jamie Chung jako Jade Nguyen
Josh Keaton jako Jeffrey Burr
Chris Cox jako Rip Jagger
Robin Atkin Downes jako Schlangenfaust
Gray DeLisle (uznawany za Gray Griffi) jako Lady Eve
Patrick Seitz jako Sir Edmund Dorrance / King Snake
Eric Bauza jako lider gangu Axe
Erica Luttrell jako Silver St. Cloud

Screenshot / Wideo




Dane Techniczne
MediaInfo
Video
ID : 1
Format : AVC
Format/Info : Advanced Video Codec
Format profile : HighL4
Format settings : CABAC / 2 Ref Frames
Format settings, CABAC : Yes
Format settings, Reference frames : 2 frames
Codec ID : V_MPEG4/ISO/AVC
Duration : 1 h 22 min
Bit rate : 5 668 kb/s
Width : 1 920 pixels
Height : 1 080 pixels
Display aspect ratio : 16:9
Frame rate mode : Constant
Frame rate : 23.976 (24000/1001) FPS
Color space : YUV
Chroma subsampling : 4:2:0
Bit depth : 8 bits
Scan type : Progressive
Bits/(PixelFrame) : 0.114
Stream size : 3.27 GiB (94)
Writing library : x264 core 155 r2901 7d0ff22
Default : Yes
Forced : No
Color range : Limited
Color primaries : BT.709
Transfer characteristics : BT.709
Matrix coefficients : BT.709

Audio
ID : 2
Format : E-AC-3
Format/Info : Enhanced AC-3
Commercial name : Dolby Digital Plus
Codec ID : A_EAC3
Duration : 1 h 22 min
Bit rate mode : Constant
Bit rate : 384 kb/s
Channel(s) : 6 channels
Channel layout : L R C LFE Ls Rs
Sampling rate : 48.0 kHz
Frame rate : 31.250 FPS (1536 SPF)
Compression mode : Lossy
Stream size : 227 MiB (6)
Title : English
Language : English
Service kind : Complete Main
Default : No
Forced : No

Text #1
ID : 3
Format : UTF-8
Codec ID : S_TEXT/UTF8
Codec ID/Info : UTF-8 Plain Text
Duration : 1 h 21 min
Bit rate : 36 b/s
Count of elements : 807
Stream size : 22.1 KiB (0)
Title : Brazilian Portuguese
Language : Portuguese
Default : No
Forced : No

Text #2
ID : 4
Format : UTF-8
Codec ID : S_TEXT/UTF8
Codec ID/Info : UTF-8 Plain Text
Duration : 1 h 21 min
Bit rate : 36 b/s
Count of elements : 801
Stream size : 21.9 KiB (0)
Title : Danish
Language : Danish
Default : No
Forced : No

Text #3
ID : 5
Format : UTF-8
Codec ID : S_TEXT/UTF8
Codec ID/Info : UTF-8 Plain Text
Duration : 1 h 19 min
Bit rate : 46 b/s
Count of elements : 946
Stream size : 26.9 KiB (0)
Title : German
Language : German
Default : No
Forced : No

Text #4
ID : 6
Format : UTF-8
Codec ID : S_TEXT/UTF8
Codec ID/Info : UTF-8 Plain Text
Duration : 1 h 19 min
Bit rate : 44 b/s
Count of elements : 1147
Stream size : 26.1 KiB (0)
Title : English
Language : English
Default : No
Forced : No

Text #5
ID : 7
Format : UTF-8
Codec ID : S_TEXT/UTF8
Codec ID/Info : UTF-8 Plain Text
Duration : 1 h 21 min
Bit rate : 34 b/s
Count of elements : 803
Stream size : 20.6 KiB (0)
Title : Finnish
Language : Finnish
Default : No
Forced : No

Text #6
ID : 8
Format : UTF-8
Codec ID : S_TEXT/UTF8
Codec ID/Info : UTF-8 Plain Text
Duration : 1 h 21 min
Bit rate : 35 b/s
Count of elements : 802
Stream size : 20.9 KiB (0)
Title : Norwegian
Language : Norwegian
Default : No
Forced : No

Text #7
ID : 9
Format : UTF-8
Codec ID : S_TEXT/UTF8
Codec ID/Info : UTF-8 Plain Text
Duration : 1 h 21 min
Bit rate : 35 b/s
Count of elements : 800
Stream size : 21.4 KiB (0)
Title : Swedish
Language : Swedish
Default : No
Forced : No
Kategoria:DivX - XviD
Ocena: N/A
Rozmiar:3.49 GiB
Dodane:15/01/2021 08:26:02
Uploader:Ishimura
Statystyki:Seedów: 379   Leecherów: 14
Ostatnie Uaktualnienie28/02/2021 11:10:59


Brak komentarzy...


Wstecz
Uwaga!!!
Zaden z plikow znajdujacych sie w serwisie nie znajduje sie na serwerze. Torrenty sa wlasnoscia użytkownikow. Administrator serwisu ani wlasciciel serwera nie moze wiec poniesc konsekwencji za to co uzytkownicy wstawiaja, lub za to co czynia na stronie. Nie mozesz takze uzywac tego serwisu do rozpowszechniania lub sciagania materialow do ktorych nie masz odpowiednich praw lub licencji. Uzytkownicy odpowiedzialni są za przestrzeganie tych zasad. Ta strona nie zajmuje sie rozpowszechnianiem plikow chronionych prawem autorskim.

[ Execution time: 0.0598 sec. ] - [Memory usage: 1.97 MiB] - [ GZIP: disabled ]