Witamy Guest (Zaloguj) Zarejestruj się Przypomnij hasło Torrenty Kontakt Napisy PL


Torrent Kategorie
 » Wszystkie torrenty
Filmy :
 » DivX - XviD49692  
 » RMVB5168  
 » VCD - SVCD64  
 » DVD-R2074  
 » HDTV-HD-DVD890  
 » x 2644053  
 » 3D98  
 » 4K155  
 » Seriale16660  
Gry :
 » Gry PC11509  
 » Gry Konsole1447  
 » Poradniki i inne3  
Muzyka :
 » Albumy47996  
 » Teledyski/Koncerty3848  
Dokumenty :
 » E-Booki14083  
 » Audiobooki4776  
 » Komiksy645  
 » Czasopisma24  
Programy :
 » Windows6135  
 » Linux + Macintosh292  
Inne :
 » Dla Dzieci3156  
 » Sport1140  
 » GSM - PDA904  
 » Manga - Anime2391  
 » Pozostałe - Różne1353  
Erotyka :
 » Filmy23178  
 » Zdjęcia92  
 » Czasopisma erotyczne17  
 » Gry erotyczne15  

Detale Torrenta
Nazwa plikuWandaVision S01E02 [1080p.DSNP.WEBRip.DDP5.1.Atmos.x264-CM] [ENG] [MULTi.Sub: ENG]
Torrent:WandaVision S01E02 [1080p.DSNP.WEBRip.DDP5.1.Atmos.x264-CM] [ENG] [MULTi.Sub: ENG].torrent
Info Hash:ecc6bd9546bd812515bf1cc3b52f3a2483f34448
Opis:

Info
https://www.imdb.com/title/tt9140560/
https://www.filmweb.pl/serial/WandaVision-2021-833643
Studio: Marvel Studios
Sieć: Disney+
Produkcja: USA
Reżyser: Matt Shakman
Twórca programu: Jac Schaeffer, Roy Thomas
Gatunki: Sitcom, Romans, Dramat filmowy, mystery film, Opowieści o superbohaterach

https://www.youtube.com/watch?v=sj9J2ecsSpo



Opis
Po wydarzeniach z Avengers: Koniec gry, Wanda Maximoff i Vision prowadzą idealne życie na przedmieściach w miasteczku Westview, ale po pewnym czasie odkrywają, że rzeczy nie są takie, na jakie wyglądają.

Obsada


Elizabeth Olsen jako Wanda Maximoff / Scarlett Witch, potrafi posługiwać się magią, posiada też umiejętności hipnozy i telekinezy. Pochodzi z Sokovii, kraju położonego we wschodniej Europie.
Paul Bettany jako Vision, android, który powstał przy użyciu sztucznej inteligencji J.A.R.V.I.S.-a i Kamienia Umysłu.
Debra Jo Rupp jako pani Heart, sąsiadka Wandy i Visiona oraz żona szefa Visiona.
Fred Melamed jako Arthur Heart, szef Visiona.
Kathryn Hahn jako Agnes, sąsiadka Wandy i Visiona.
Teyonah Parris jako Monica Rambeau, córka Marii Rambeau.
Kat Dennings jako Darcy Lewis, politolog i asystentka Jane Foster.
Randall Park jako Jimmy Woo, agent FBI

Screenshot / Wideo





Dane Techniczne
MediaInfo
Video
ID : 1
Format : AVC
Format/Info : Advanced Video Codec
Format profile : HighL4
Format settings : CABAC / 4 Ref Frames
Format settings, CABAC : Yes
Format settings, Reference frames : 4 frames
Codec ID : V_MPEG4/ISO/AVC
Duration : 33 min 41 s
Bit rate mode : Variable
Bit rate : 6 793 kb/s
Maximum bit rate : 12.7 Mb/s
Width : 1 920 pixels
Height : 1 080 pixels
Display aspect ratio : 16:9
Frame rate mode : Constant
Frame rate : 23.976 (24000/1001) FPS
Color space : YUV
Chroma subsampling : 4:2:0
Bit depth : 8 bits
Scan type : Progressive
Bits/(PixelFrame) : 0.137
Stream size : 1.60 GiB (90)
Default : Yes
Forced : No
Color range : Limited
Color primaries : BT.709
Transfer characteristics : BT.709
Matrix coefficients : BT.709

Audio
ID : 2
Format : E-AC-3 JOC
Format/Info : Enhanced AC-3 with Joint Object Coding
Commercial name : Dolby Digital Plus with Dolby Atmos
Codec ID : A_EAC3
Duration : 33 min 41 s
Bit rate mode : Constant
Bit rate : 768 kb/s
Channel(s) : 6 channels
Channel layout : L R C LFE Ls Rs
Sampling rate : 48.0 kHz
Frame rate : 31.250 FPS (1536 SPF)
Compression mode : Lossy
Stream size : 185 MiB (10)
Title : English
Language : English
Service kind : Complete Main
Default : No
Forced : No
Complexity index : 16
Number of dynamic objects : 15
Bed channel count : 1 channel
Bed channel configuration : LFE

Text #1
ID : 3
Format : UTF-8
Codec ID : S_TEXT/UTF8
Codec ID/Info : UTF-8 Plain Text
Duration : 33 min 39 s
Bit rate : 54 b/s
Count of elements : 423
Stream size : 13.3 KiB (0)
Title : Brazilian Portuguese
Language : Portuguese
Default : No
Forced : No

Text #2
ID : 4
Format : UTF-8
Codec ID : S_TEXT/UTF8
Codec ID/Info : UTF-8 Plain Text
Duration : 29 min 37 s
Bit rate : 49 b/s
Count of elements : 368
Stream size : 10.7 KiB (0)
Title : French Canadian
Language : French
Default : No
Forced : No

Text #3
ID : 5
Format : UTF-8
Codec ID : S_TEXT/UTF8
Codec ID/Info : UTF-8 Plain Text
Duration : 33 min 39 s
Bit rate : 45 b/s
Count of elements : 300
Stream size : 11.2 KiB (0)
Title : Danish
Language : Danish
Default : No
Forced : No

Text #4
ID : 6
Format : UTF-8
Codec ID : S_TEXT/UTF8
Codec ID/Info : UTF-8 Plain Text
Duration : 33 min 39 s
Bit rate : 48 b/s
Count of elements : 392
Stream size : 11.8 KiB (0)
Title : German
Language : German
Default : No
Forced : No

Text #5
ID : 7
Format : UTF-8
Codec ID : S_TEXT/UTF8
Codec ID/Info : UTF-8 Plain Text
Duration : 29 min 24 s
Bit rate : 70 b/s
Count of elements : 479
Stream size : 15.1 KiB (0)
Title : English [SDH]
Language : English
Default : No
Forced : No

Text #6
ID : 8
Format : UTF-8
Codec ID : S_TEXT/UTF8
Codec ID/Info : UTF-8 Plain Text
Duration : 29 min 24 s
Bit rate : 64 b/s
Count of elements : 431
Stream size : 13.8 KiB (0)
Title : English
Language : English
Default : No
Forced : No

Text #7
ID : 9
Format : UTF-8
Codec ID : S_TEXT/UTF8
Codec ID/Info : UTF-8 Plain Text
Duration : 33 min 39 s
Bit rate : 53 b/s
Count of elements : 427
Stream size : 13.2 KiB (0)
Title : European Spanish
Language : Spanish
Default : No
Forced : No

Text #8
ID : 10
Format : UTF-8
Codec ID : S_TEXT/UTF8
Codec ID/Info : UTF-8 Plain Text
Duration : 33 min 39 s
Bit rate : 43 b/s
Count of elements : 417
Stream size : 10.8 KiB (0)
Title : Finnish
Language : Finnish
Default : No
Forced : No

Text #9
ID : 11
Format : UTF-8
Codec ID : S_TEXT/UTF8
Codec ID/Info : UTF-8 Plain Text
Duration : 33 min 39 s
Bit rate : 43 b/s
Count of elements : 368
Stream size : 10.7 KiB (0)
Title : French
Language : French
Default : No
Forced : No

Text #10
ID : 12
Format : UTF-8
Codec ID : S_TEXT/UTF8
Codec ID/Info : UTF-8 Plain Text
Duration : 33 min 39 s
Bit rate : 48 b/s
Count of elements : 417
Stream size : 12.0 KiB (0)
Title : Italian
Language : Italian
Default : No
Forced : No

Text #11
ID : 13
Format : UTF-8
Codec ID : S_TEXT/UTF8
Codec ID/Info : UTF-8 Plain Text
Duration : 33 min 39 s
Bit rate : 49 b/s
Count of elements : 358
Stream size : 12.1 KiB (0)
Title : Dutch
Language : Dutch
Default : No
Forced : No

Text #12
ID : 14
Format : UTF-8
Codec ID : S_TEXT/UTF8
Codec ID/Info : UTF-8 Plain Text
Duration : 33 min 39 s
Bit rate : 44 b/s
Count of elements : 424
Stream size : 10.9 KiB (0)
Title : Norwegian
Language : Norwegian
Default : No
Forced : No

Text #13
ID : 15
Format : UTF-8
Codec ID : S_TEXT/UTF8
Codec ID/Info : UTF-8 Plain Text
Duration : 33 min 39 s
Bit rate : 52 b/s
Count of elements : 411
Stream size : 12.9 KiB (0)
Title : Portuguese
Language : Portuguese
Default : No
Forced : No

Text #14
ID : 16
Format : UTF-8
Codec ID : S_TEXT/UTF8
Codec ID/Info : UTF-8 Plain Text
Duration : 33 min 39 s
Bit rate : 52 b/s
Count of elements : 423
Stream size : 12.9 KiB (0)
Title : Spanish
Language : Spanish
Default : No
Forced : No

Text #15
ID : 17
Format : UTF-8
Codec ID : S_TEXT/UTF8
Codec ID/Info : UTF-8 Plain Text
Duration : 33 min 39 s
Bit rate : 49 b/s
Count of elements : 323
Stream size : 12.3 KiB (0)
Title : Swedish
Language : Swedish
Default : No
Forced : No
Kategoria:Seriale
Ocena: N/A
Rozmiar:1.78 GiB
Dodane:18/01/2021 18:38:03
Uploader:Ishimura
Statystyki:Seedów: 392   Leecherów: 26
Ostatnie Uaktualnienie19/09/2021 22:06:38


Brak komentarzy...


Wstecz
Uwaga!!!
Zaden z plikow znajdujacych sie w serwisie nie znajduje sie na serwerze. Torrenty sa wlasnoscia użytkownikow. Administrator serwisu ani wlasciciel serwera nie moze wiec poniesc konsekwencji za to co uzytkownicy wstawiaja, lub za to co czynia na stronie. Nie mozesz takze uzywac tego serwisu do rozpowszechniania lub sciagania materialow do ktorych nie masz odpowiednich praw lub licencji. Uzytkownicy odpowiedzialni są za przestrzeganie tych zasad. Ta strona nie zajmuje sie rozpowszechnianiem plikow chronionych prawem autorskim.

[ Execution time: 0.0204 sec. ] - [Memory usage: 1.97 MiB] - [ GZIP: disabled ]