Witamy Guest (Zaloguj) Zarejestruj się Przypomnij hasło Torrenty Kontakt Napisy PL


Torrent Kategorie
 » Wszystkie torrenty
Filmy :
 » DivX - XviD49788  
 » RMVB5168  
 » VCD - SVCD64  
 » DVD-R2074  
 » HDTV-HD-DVD891  
 » x 2644053  
 » 3D98  
 » 4K156  
 » Seriale16668  
Gry :
 » Gry PC11518  
 » Gry Konsole1447  
 » Poradniki i inne3  
Muzyka :
 » Albumy48020  
 » Teledyski/Koncerty3848  
Dokumenty :
 » E-Booki14089  
 » Audiobooki4797  
 » Komiksy645  
 » Czasopisma24  
Programy :
 » Windows6136  
 » Linux + Macintosh292  
Inne :
 » Dla Dzieci3156  
 » Sport1143  
 » GSM - PDA904  
 » Manga - Anime2391  
 » Pozostałe - Różne1353  
Erotyka :
 » Filmy23178  
 » Zdjęcia92  
 » Czasopisma erotyczne17  
 » Gry erotyczne15  

Detale Torrenta
Nazwa plikuW drodze - Nomadland (2020) [1080p.WEBSCR.DD2.0.x264-NOGRP] [ENG]
Torrent:W drodze - Nomadland (2020) [1080p.WEBSCR.DD2.0.x264-NOGRP] [ENG].torrent
Info Hash:2de7df066fa639669f1e877ce49e65ed5f1e6d94
Opis:

Info
https://www.imdb.com/title/tt9770150/
https://www.filmweb.pl/film/Nomadland-2020-837168
Gatunek: Dramat
Produkcja: USA
Data premiery: 11 września 2020 r. ( Wenecja ), 29 stycznia 2021 (Stany Zjednoczone)
Reżyserka, Scenariusz: Chlo Zhao
Opaty na: Nomadland: Surviving America in the Twenty-First Century autorstwa Jessica Bruder

https://www.youtube.com/watch?v=6sxCFZ8

Opis
W 2011 roku Fern traci pracę po zamknięciu fabryki US Gypsum w Empire w stanie Nevada pracowała tam przez lata wraz z niedawno zmarłym mężem. Fern postanawia sprzedać większość swoich rzeczy i kupić furgonetkę, aby mieszkać i podróżować po kraju w poszukiwaniu pracy. Na zimę podejmuje sezonową pracę w centrum logistycznym Amazon...

Obsada
Frances McDormand jako Fern
David Strathairn jako David
Linda May jako Linda
Charlene Swankie jako Swankie
Bob Wells jako Bob
Peter Spears jako Peter

Screenshot / Wideo




Dane Techniczne
MediaInfo
Video
ID : 1
Format : AVC
Format/Info : Advanced Video Codec
Format profile : HighL4.1
Format settings : CABAC / 4 Ref Frames
Format settings, CABAC : Yes
Format settings, Reference frames : 4 frames
Codec ID : V_MPEG4/ISO/AVC
Duration : 1 h 47 min
Bit rate : 2 960 kb/s
Width : 1 920 pixels
Height : 800 pixels
Display aspect ratio : 2.40:1
Frame rate mode : Constant
Frame rate : 30.000 FPS
Color space : YUV
Chroma subsampling : 4:2:0
Bit depth : 8 bits
Scan type : Progressive
Bits/(PixelFrame) : 0.064
Stream size : 2.22 GiB (88)
Language : English
Default : Yes
Forced : No
Color range : Limited
Color primaries : BT.709
Transfer characteristics : BT.709
Matrix coefficients : BT.709

Audio
ID : 2
Format : AC-3
Format/Info : Audio Coding 3
Commercial name : Dolby Digital
Codec ID : A_AC3
Duration : 1 h 47 min
Bit rate mode : Constant
Bit rate : 384 kb/s
Channel(s) : 2 channels
Channel layout : L R
Sampling rate : 48.0 kHz
Frame rate : 31.250 FPS (1536 SPF)
Compression mode : Lossy
Stream size : 295 MiB (11)
Language : English
Service kind : Complete Main
Default : Yes
Forced : No
Kategoria:DivX - XviD
Ocena: N/A
Rozmiar:2.51 GiB
Dodane:26/01/2021 10:08:03
Uploader:Ishimura
Statystyki:Seedów: 0   Leecherów: 0
Ostatnie Uaktualnienie20/11/2021 20:51:38


Brak komentarzy...


Wstecz
Uwaga!!!
Zaden z plikow znajdujacych sie w serwisie nie znajduje sie na serwerze. Torrenty sa wlasnoscia użytkownikow. Administrator serwisu ani wlasciciel serwera nie moze wiec poniesc konsekwencji za to co uzytkownicy wstawiaja, lub za to co czynia na stronie. Nie mozesz takze uzywac tego serwisu do rozpowszechniania lub sciagania materialow do ktorych nie masz odpowiednich praw lub licencji. Uzytkownicy odpowiedzialni są za przestrzeganie tych zasad. Ta strona nie zajmuje sie rozpowszechnianiem plikow chronionych prawem autorskim.

[ Execution time: 0.0169 sec. ] - [Memory usage: 1.97 MiB] - [ GZIP: disabled ]