Witamy Guest (Zaloguj) Zarejestruj się Przypomnij hasło Torrenty Kontakt Napisy PL


Torrent Kategorie
 » Wszystkie torrenty
Filmy :
 » DivX - XviD49692  
 » RMVB5168  
 » VCD - SVCD64  
 » DVD-R2074  
 » HDTV-HD-DVD890  
 » x 2644053  
 » 3D98  
 » 4K155  
 » Seriale16660  
Gry :
 » Gry PC11509  
 » Gry Konsole1447  
 » Poradniki i inne3  
Muzyka :
 » Albumy47996  
 » Teledyski/Koncerty3848  
Dokumenty :
 » E-Booki14083  
 » Audiobooki4776  
 » Komiksy645  
 » Czasopisma24  
Programy :
 » Windows6135  
 » Linux + Macintosh292  
Inne :
 » Dla Dzieci3156  
 » Sport1140  
 » GSM - PDA904  
 » Manga - Anime2391  
 » Pozostałe - Różne1353  
Erotyka :
 » Filmy23178  
 » Zdjęcia92  
 » Czasopisma erotyczne17  
 » Gry erotyczne15  

Detale Torrenta
Nazwa plikuWandaVision S01E06 [1080p.DSNP.WEBRip.DDP5.1.x264-TOMMY] [ENG] [MULTi.Sub: ENG]
Torrent:WandaVision S01E06 [1080p.DSNP.WEBRip.DDP5.1.x264-TOMMY] [ENG] [MULTi.Sub: ENG].torrent
Info Hash:fa65c43523bbb890997f2d4a97e44ba0c575d530
Opis:

Info
https://www.imdb.com/title/tt9140560/
https://www.filmweb.pl/serial/WandaVision-2021-833643
Studio: Marvel Studios
Sieć: Disney+
Produkcja: USA
Reżyser: Matt Shakman
Twórca programu: Jac Schaeffer, Roy Thomas
Gatunki: Sitcom, Romans, Dramat filmowy, mystery film, Opowieści o superbohaterach

https://www.youtube.com/watch?v=sj9J2ecsSpo

Opis
Po wydarzeniach z Avengers: Koniec gry, Wanda Maximoff i Vision prowadzą idealne życie na przedmieściach w miasteczku Westview, ale po pewnym czasie odkrywają, że rzeczy nie są takie, na jakie wyglądają.

Obsada

Elizabeth Olsen jako Wanda Maximoff / Scarlett Witch, potrafi posługiwać się magią, posiada też umiejętności hipnozy i telekinezy. Pochodzi z Sokovii, kraju położonego we wschodniej Europie.
Paul Bettany jako Vision, android, który powstał przy użyciu sztucznej inteligencji J.A.R.V.I.S.-a i Kamienia Umysłu.
Debra Jo Rupp jako pani Heart, sąsiadka Wandy i Visiona oraz żona szefa Visiona.
Fred Melamed jako Arthur Heart, szef Visiona.
Kathryn Hahn jako Agnes, sąsiadka Wandy i Visiona.
Teyonah Parris jako Monica Rambeau, córka Marii Rambeau.
Kat Dennings jako Darcy Lewis, politolog i asystentka Jane Foster.
Randall Park jako Jimmy Woo, agent FBI

Screenshot / Wideo
[img]https://imagecurl.com/images/92716689380316329330_thumb.png[/img



Dane Techniczne
MediaInfo
Video
ID : 1
Format : AVC
Format/Info : Advanced Video Codec
Format profile : HighL4
Format settings : CABAC / 4 Ref Frames
Format settings, CABAC : Yes
Format settings, Reference frames : 4 frames
Codec ID : V_MPEG4/ISO/AVC
Duration : 34 min 42 s
Bit rate mode : Variable
Bit rate : 7 215 kb/s
Maximum bit rate : 12.7 Mb/s
Width : 1 920 pixels
Height : 1 080 pixels
Display aspect ratio : 16:9
Frame rate mode : Constant
Frame rate : 23.976 (24000/1001) FPS
Color space : YUV
Chroma subsampling : 4:2:0
Bit depth : 8 bits
Scan type : Progressive
Bits/(PixelFrame) : 0.145
Stream size : 1.75 GiB (90)
Default : Yes
Forced : No
Color range : Limited
Color primaries : BT.709
Transfer characteristics : BT.709
Matrix coefficients : BT.709

Audio
ID : 2
Format : E-AC-3 JOC
Format/Info : Enhanced AC-3 with Joint Object Coding
Commercial name : Dolby Digital Plus with Dolby Atmos
Codec ID : A_EAC3
Duration : 34 min 42 s
Bit rate mode : Constant
Bit rate : 768 kb/s
Channel(s) : 6 channels
Channel layout : L R C LFE Ls Rs
Sampling rate : 48.0 kHz
Frame rate : 31.250 FPS (1536 SPF)
Compression mode : Lossy
Stream size : 191 MiB (10)
Title : English
Language : English
Service kind : Complete Main
Default : Yes
Forced : No
Complexity index : 16
Number of dynamic objects : 15
Bed channel count : 1 channel
Bed channel configuration : LFE

Text #1
ID : 3
Format : UTF-8
Codec ID : S_TEXT/UTF8
Codec ID/Info : UTF-8 Plain Text
Duration : 34 min 36 s
Bit rate : 41 b/s
Count of elements : 275
Stream size : 10.6 KiB (0)
Title : Dansk
Language : Danish
Default : No
Forced : No

Text #2
ID : 4
Format : UTF-8
Codec ID : S_TEXT/UTF8
Codec ID/Info : UTF-8 Plain Text
Duration : 34 min 36 s
Bit rate : 42 b/s
Count of elements : 363
Stream size : 10.8 KiB (0)
Title : Deutsch
Language : German
Default : No
Forced : No

Text #3
ID : 5
Format : UTF-8
Codec ID : S_TEXT/UTF8
Codec ID/Info : UTF-8 Plain Text
Duration : 30 min 12 s
Bit rate : 63 b/s
Count of elements : 455
Stream size : 14.0 KiB (0)
Title : English (SDH)
Language : English
Default : No
Forced : No

Text #4
ID : 6
Format : UTF-8
Codec ID : S_TEXT/UTF8
Codec ID/Info : UTF-8 Plain Text
Duration : 34 min 36 s
Bit rate : 47 b/s
Count of elements : 404
Stream size : 12.1 KiB (0)
Title : Espa? ol
Language : Spanish
Default : No
Forced : No

Text #5
ID : 7
Format : UTF-8
Codec ID : S_TEXT/UTF8
Codec ID/Info : UTF-8 Plain Text
Duration : 34 min 36 s
Bit rate : 47 b/s
Count of elements : 405
Stream size : 12.0 KiB (0)
Title : Espa? ol (Latinoamericano)
Language : Spanish
Default : No
Forced : No

Text #6
ID : 8
Format : UTF-8
Codec ID : S_TEXT/UTF8
Codec ID/Info : UTF-8 Plain Text
Duration : 34 min 36 s
Bit rate : 40 b/s
Count of elements : 384
Stream size : 10.2 KiB (0)
Title : Fran?ais
Language : French
Default : No
Forced : No

Text #7
ID : 9
Format : UTF-8
Codec ID : S_TEXT/UTF8
Codec ID/Info : UTF-8 Plain Text
Duration : 30 min 13 s
Bit rate : 45 b/s
Count of elements : 381
Stream size : 10.1 KiB (0)
Title : Fran?ais (Canadien)
Language : French
Default : No
Forced : No

Text #8
ID : 10
Format : UTF-8
Codec ID : S_TEXT/UTF8
Codec ID/Info : UTF-8 Plain Text
Duration : 34 min 36 s
Bit rate : 44 b/s
Count of elements : 399
Stream size : 11.3 KiB (0)
Title : Italiano
Language : Italian
Default : No
Forced : No

Text #9
ID : 11
Format : UTF-8
Codec ID : S_TEXT/UTF8
Codec ID/Info : UTF-8 Plain Text
Duration : 34 min 36 s
Bit rate : 45 b/s
Count of elements : 330
Stream size : 11.5 KiB (0)
Title : Nederlands
Language : Dutch
Default : No
Forced : No

Text #10
ID : 12
Format : UTF-8
Codec ID : S_TEXT/UTF8
Codec ID/Info : UTF-8 Plain Text
Duration : 34 min 36 s
Bit rate : 40 b/s
Count of elements : 401
Stream size : 10.3 KiB (0)
Title : Norsk
Language : Norwegian
Default : No
Forced : No

Text #11
ID : 13
Format : UTF-8
Codec ID : S_TEXT/UTF8
Codec ID/Info : UTF-8 Plain Text
Duration : 34 min 36 s
Bit rate : 46 b/s
Count of elements : 389
Stream size : 11.8 KiB (0)
Title : Portugu? s
Language : Portuguese
Default : No
Forced : No

Text #12
ID : 14
Format : UTF-8
Codec ID : S_TEXT/UTF8
Codec ID/Info : UTF-8 Plain Text
Duration : 34 min 36 s
Bit rate : 47 b/s
Count of elements : 405
Stream size : 12.0 KiB (0)
Title : Portugu? s (Brasil)
Language : Portuguese
Default : No
Forced : No

Text #13
ID : 15
Format : UTF-8
Codec ID : S_TEXT/UTF8
Codec ID/Info : UTF-8 Plain Text
Duration : 34 min 36 s
Bit rate : 41 b/s
Count of elements : 399
Stream size : 10.6 KiB (0)
Title : Suomi
Language : Finnish
Default : No
Forced : No

Text #14
ID : 16
Format : UTF-8
Codec ID : S_TEXT/UTF8
Codec ID/Info : UTF-8 Plain Text
Duration : 34 min 36 s
Bit rate : 45 b/s
Count of elements : 314
Stream size : 11.6 KiB (0)
Title : Svenska
Language : Swedish
Default : No
Forced : No
Kategoria:Seriale
Ocena: N/A
Rozmiar:1.94 GiB
Dodane:15/02/2021 04:30:03
Uploader:Ishimura
Statystyki:Seedów: 385   Leecherów: 17
Ostatnie Uaktualnienie12/10/2021 00:25:19


Brak komentarzy...


Wstecz
Uwaga!!!
Zaden z plikow znajdujacych sie w serwisie nie znajduje sie na serwerze. Torrenty sa wlasnoscia użytkownikow. Administrator serwisu ani wlasciciel serwera nie moze wiec poniesc konsekwencji za to co uzytkownicy wstawiaja, lub za to co czynia na stronie. Nie mozesz takze uzywac tego serwisu do rozpowszechniania lub sciagania materialow do ktorych nie masz odpowiednich praw lub licencji. Uzytkownicy odpowiedzialni są za przestrzeganie tych zasad. Ta strona nie zajmuje sie rozpowszechnianiem plikow chronionych prawem autorskim.

[ Execution time: 0.0322 sec. ] - [Memory usage: 1.97 MiB] - [ GZIP: disabled ]