Witamy Guest (Zaloguj) Zarejestruj się Przypomnij hasło Torrenty Kontakt Napisy PL


Torrent Kategorie
 » Wszystkie torrenty
Filmy :
 » DivX - XviD49787  
 » RMVB5168  
 » VCD - SVCD64  
 » DVD-R2074  
 » HDTV-HD-DVD891  
 » x 2644053  
 » 3D98  
 » 4K156  
 » Seriale16668  
Gry :
 » Gry PC11518  
 » Gry Konsole1447  
 » Poradniki i inne3  
Muzyka :
 » Albumy48020  
 » Teledyski/Koncerty3848  
Dokumenty :
 » E-Booki14089  
 » Audiobooki4797  
 » Komiksy645  
 » Czasopisma24  
Programy :
 » Windows6136  
 » Linux + Macintosh292  
Inne :
 » Dla Dzieci3156  
 » Sport1143  
 » GSM - PDA904  
 » Manga - Anime2391  
 » Pozostałe - Różne1353  
Erotyka :
 » Filmy23178  
 » Zdjęcia92  
 » Czasopisma erotyczne17  
 » Gry erotyczne15  

Detale Torrenta
Nazwa plikuCzarna Wdowa - Black Widow *2021* [1080p] [DSNP] [WEBRip] [DDP5.1.Atmos] [x264-CM] [ENG] [zibi6248]
Torrent:Czarna Wdowa - Black Widow *2021* [1080p] [DSNP] [WEBRip] [DDP5.1.Atmos] [x264-CM] [ENG] [zibi6248].torrent
Info Hash:f8440576fcaff16c1009b7cd8f589c66ae04d3a4
Opis:

...( Info )...

Produkcja: USA
Gatunek: Akcja, Sci-Fi
Premiera: 9 lipca 2021 (Polska)
Reżyseria: Cate Shortland
Scenariusz: Eric Pearson
https://www.youtube.com/watch?v=zUJpzYETOOM

...( Opis )...

W wyniku niebezpiecznego spisku i podejrzanych powiązań sprzed czasów drużyny Avengers, Natasha Romanoff aka Czarna Wdowa musi skonfrontować się z mrocznymi echami swojej przeszłości. Bohaterka stawia czoła groźnemu, potężnemu przeciwnikowi, który nie cofnie się przed niczym, by ją zniszczyć.

...( Obsada )...

★ Scarlett Johansson .... Czarna Wdowa (Natasha Romanoff)
★ Florence Pugh .... Yelena Belova
★ David Harbour .... Red Guardian (Alexei Shostakov)
★ O-T Fagbenle .... Mason
★ Ray Winstone .... Dreykov
★ Rachel Weisz .... Melina Vostokoff
★ William Hurt .... Thaddeus Ross
★ Michelle Lee .... Oksana

...( Dane Techniczne )...

Video
ID : 1
Format : AVC
Format/Info : Advanced Video Codec
Format profile : High@L4
Format settings : CABAC / 4 Ref Frames
Format settings, CABAC : Yes
Format settings, Reference frames : 4 frames
Codec ID : V_MPEG4/ISO/AVC
Duration : 2 h 13 min
Bit rate mode : Variable
Bit rate : 7 203 kb/s
Maximum bit rate : 12.7 Mb/s
Width : 1 920 pixels
Height : 1 080 pixels
Display aspect ratio : 16:9
Frame rate mode : Constant
Frame rate : 23.976 (24000/1001) FPS
Color space : YUV
Chroma subsampling : 4:2:0
Bit depth : 8 bits
Scan type : Progressive
Bits/(Pixel*Frame) : 0.145
Stream size : 6.73 GiB (90%)
Default : Yes
Forced : No
Color range : Limited
Color primaries : BT.709
Transfer characteristics : BT.709
Matrix coefficients : BT.709

Audio
ID : 2
Format : E-AC-3 JOC
Format/Info : Enhanced AC-3 with Joint Object Coding
Commercial name : Dolby Digital Plus with Dolby Atmos
Codec ID : A_EAC3
Duration : 2 h 13 min
Bit rate mode : Constant
Bit rate : 768 kb/s
Channel(s) : 6 channels
Channel layout : L R C LFE Ls Rs
Sampling rate : 48.0 kHz
Frame rate : 31.250 FPS (1536 SPF)
Compression mode : Lossy
Stream size : 735 MiB (10%)
Title : English
Language : English
Service kind : Complete Main
Default : No
Forced : No
Complexity index : 16
Number of dynamic objects : 15
Bed channel count : 1 channel
Bed channel configuration : LFE

Text #1
ID : 3
Format : UTF-8
Codec ID : S_TEXT/UTF8
Codec ID/Info : UTF-8 Plain Text
Duration : 2 h 12 min
Bit rate : 34 b/s
Count of elements : 1299
Stream size : 33.8 KiB (0%)
Title : Norwegian
Language : Norwegian
Default : No
Forced : No

Text #2
ID : 4
Format : UTF-8
Codec ID : S_TEXT/UTF8
Codec ID/Info : UTF-8 Plain Text
Duration : 2 h 12 min
Bit rate : 33 b/s
Count of elements : 923
Stream size : 32.4 KiB (0%)
Title : Danish
Language : Danish
Default : No
Forced : No

Text #3
ID : 5
Format : UTF-8
Codec ID : S_TEXT/UTF8
Codec ID/Info : UTF-8 Plain Text
Duration : 2 h 13 min
Bit rate : 46 b/s
Count of elements : 1630
Stream size : 45.7 KiB (0%)
Title : English [SDH]
Language : English
Default : No
Forced : No

Text #4
ID : 6
Format : UTF-8
Codec ID : S_TEXT/UTF8
Codec ID/Info : UTF-8 Plain Text
Duration : 2 h 12 min
Bit rate : 35 b/s
Count of elements : 1114
Stream size : 34.9 KiB (0%)
Title : Dutch
Language : Dutch
Default : No
Forced : No

Text #5
ID : 7
Format : UTF-8
Codec ID : S_TEXT/UTF8
Codec ID/Info : UTF-8 Plain Text
Duration : 2 h 12 min
Bit rate : 35 b/s
Count of elements : 1080
Stream size : 34.8 KiB (0%)
Title : Swedish
Language : Swedish
Default : No
Forced : No

Text #6
ID : 8
Format : UTF-8
Codec ID : S_TEXT/UTF8
Codec ID/Info : UTF-8 Plain Text
Duration : 2 h 12 min
Bit rate : 39 b/s
Count of elements : 1306
Stream size : 38.8 KiB (0%)
Title : English
Language : English
Default : No
Forced : No

Text #7
ID : 9
Format : UTF-8
Codec ID : S_TEXT/UTF8
Codec ID/Info : UTF-8 Plain Text
Duration : 2 h 12 min
Bit rate : 39 b/s
Count of elements : 1300
Stream size : 38.3 KiB (0%)
Title : Finnish
Language : Finnish
Default : No
Forced : No

Text #8
ID : 10
Format : UTF-8
Codec ID : S_TEXT/UTF8
Codec ID/Info : UTF-8 Plain Text
Duration : 2 h 12 min
Bit rate : 43 b/s
Count of elements : 1319
Stream size : 42.7 KiB (0%)
Title : French Canadian
Language : French
Default : No
Forced : No

Text #9
ID : 11
Format : UTF-8
Codec ID : S_TEXT/UTF8
Codec ID/Info : UTF-8 Plain Text
Duration : 2 h 12 min
Bit rate : 40 b/s
Count of elements : 1278
Stream size : 39.1 KiB (0%)
Title : Italian
Language : Italian
Default : No
Forced : No

Text #10
ID : 12
Format : UTF-8
Codec ID : S_TEXT/UTF8
Codec ID/Info : UTF-8 Plain Text
Duration : 2 h 12 min
Bit rate : 35 b/s
Count of elements : 1204
Stream size : 34.8 KiB (0%)
Title : German
Language : German
Default : No
Forced : No

Text #11
ID : 13
Format : UTF-8
Codec ID : S_TEXT/UTF8
Codec ID/Info : UTF-8 Plain Text
Duration : 2 h 12 min
Bit rate : 39 b/s
Count of elements : 1297
Stream size : 38.5 KiB (0%)
Title : Brazilian Portuguese
Language : Portuguese
Default : No
Forced : No

Text #12
ID : 14
Format : UTF-8
Codec ID : S_TEXT/UTF8
Codec ID/Info : UTF-8 Plain Text
Duration : 2 h 12 min
Bit rate : 38 b/s
Count of elements : 1273
Stream size : 37.6 KiB (0%)
Title : Portuguese
Language : Portuguese
Default : No
Forced : No

Text #13
ID : 15
Format : UTF-8
Codec ID : S_TEXT/UTF8
Codec ID/Info : UTF-8 Plain Text
Duration : 2 h 12 min
Bit rate : 36 b/s
Count of elements : 1277
Stream size : 35.0 KiB (0%)
Title : European Spanish
Language : Spanish
Default : No
Forced : No

Text #14
ID : 16
Format : UTF-8
Codec ID : S_TEXT/UTF8
Codec ID/Info : UTF-8 Plain Text
Duration : 2 h 12 min
Bit rate : 33 b/s
Count of elements : 1256
Stream size : 32.4 KiB (0%)
Title : French
Language : French
Default : No
Forced : No

Text #15
ID : 17
Format : UTF-8
Codec ID : S_TEXT/UTF8
Codec ID/Info : UTF-8 Plain Text
Duration : 2 h 12 min
Bit rate : 32 b/s
Count of elements : 1257
Stream size : 31.6 KiB (0%)
Title : Japanese
Language : Japanese
Default : No
Forced : No

Text #16
ID : 18
Format : UTF-8
Codec ID : S_TEXT/UTF8
Codec ID/Info : UTF-8 Plain Text
Duration : 2 h 12 min
Bit rate : 40 b/s
Count of elements : 1301
Stream size : 39.4 KiB (0%)
Title : Spanish
Language : Spanish
Default : No
Forced : No
Kategoria:x 264
Ocena: N/A
Rozmiar:7.45 GiB
Dodane:09/07/2021 12:53:24
Uploader:zibi6248
Statystyki:Seedów: 936   Leecherów: 45
Ostatnie Uaktualnienie04/12/2021 20:39:31


Brak komentarzy...


Wstecz
Uwaga!!!
Zaden z plikow znajdujacych sie w serwisie nie znajduje sie na serwerze. Torrenty sa wlasnoscia użytkownikow. Administrator serwisu ani wlasciciel serwera nie moze wiec poniesc konsekwencji za to co uzytkownicy wstawiaja, lub za to co czynia na stronie. Nie mozesz takze uzywac tego serwisu do rozpowszechniania lub sciagania materialow do ktorych nie masz odpowiednich praw lub licencji. Uzytkownicy odpowiedzialni są za przestrzeganie tych zasad. Ta strona nie zajmuje sie rozpowszechnianiem plikow chronionych prawem autorskim.

[ Execution time: 0.1024 sec. ] - [Memory usage: 1.97 MiB] - [ GZIP: disabled ]