Witamy Guest (Zaloguj) Zarejestruj się Przypomnij hasło Torrenty Kontakt Napisy PL


Torrent Kategorie
 » Wszystkie torrenty
Filmy :
 » DivX - XviD49692  
 » RMVB5168  
 » VCD - SVCD64  
 » DVD-R2074  
 » HDTV-HD-DVD890  
 » x 2644053  
 » 3D98  
 » 4K155  
 » Seriale16660  
Gry :
 » Gry PC11509  
 » Gry Konsole1447  
 » Poradniki i inne3  
Muzyka :
 » Albumy47996  
 » Teledyski/Koncerty3848  
Dokumenty :
 » E-Booki14083  
 » Audiobooki4776  
 » Komiksy645  
 » Czasopisma24  
Programy :
 » Windows6135  
 » Linux + Macintosh292  
Inne :
 » Dla Dzieci3156  
 » Sport1140  
 » GSM - PDA904  
 » Manga - Anime2391  
 » Pozostałe - Różne1353  
Erotyka :
 » Filmy23178  
 » Zdjęcia92  
 » Czasopisma erotyczne17  
 » Gry erotyczne15  

Detale Torrenta
Nazwa plikuCzarna Wdowa - Black Widow 2021 [1080p.WEBRip.x264-RBG] [ENG] [Sub.MULTi: ENG]
Torrent:Czarna Wdowa - Black Widow 2021 [1080p.WEBRip.x264-RBG] [ENG] [Sub.MULTi: ENG].torrent
Info Hash:e3aa9dacf8fa4257df47d7f63e43c494a27e2803
Opis:

Info
Produkcja: USA
Gatunek: Akcja, Sci-Fi
Premiera: 9 lipca 2021 (Polska)
Reżyseria: Cate Shortland
Scenariusz: Eric Pearson
https://www.imdb.com/title/tt3480822/
https://www.filmweb.pl/film/Czarna+Wdowa-2021-120986

Opis
W wyniku niebezpiecznego spisku i podejrzanych powiązań sprzed czasów drużyny Avengers, Natasha Romanoff aka Czarna Wdowa musi skonfrontować się z mrocznymi echami swojej przeszłości. Bohaterka stawia czoła groźnemu, potężnemu przeciwnikowi, który nie cofnie się przed niczym, by ją zniszczyć.

Obsada


Scarlett Johansson .... Czarna Wdowa (Natasha Romanoff)
Florence Pugh .... Yelena Belova
David Harbour .... Red Guardian (Alexei Shostakov)
O-T Fagbenle .... Mason
Ray Winstone .... Dreykov
Rachel Weisz .... Melina Vostokoff
William Hurt .... Thaddeus Ross
Michelle Lee .... Oksana

Screenshot / Wideo
https://www.youtube.com/watch?v=zUJpzYETOOM





Dane Techniczne
MediaInfo
Video
ID : 1
Format : AVC
Format/Info : Advanced Video Codec
Format profile : HighL4.1
Format settings : CABAC / 4 Ref Frames
Format settings, CABAC : Yes
Format settings, Reference frames : 4 frames
Codec ID : avc1
Codec ID/Info : Advanced Video Coding
Duration : 2 h 13 min
Bit rate : 2 500 kb/s
Width : 1 920 pixels
Height : 800 pixels
Display aspect ratio : 2.40:1
Frame rate mode : Constant
Frame rate : 23.976 (23976/1000) FPS
Color space : YUV
Chroma subsampling : 4:2:0
Bit depth : 8 bits
Scan type : Progressive
Bits/(PixelFrame) : 0.068
Stream size : 2.34 GiB (92)
Writing library : x264 core 152 r2851M ba24899
Encoding settings : cabac=1 / ref=4 / deblock=1:-1:-1 / analyse=0x3:0x113 / me=umh / subme=9 / psy=1 / psy_rd=1.00:0.15 / mixed_ref=1 / me_range=24 / chroma_me=1 / trellis=2 / 8x8dct=1 / cqm=0 / deadzone=21,11 / fast_pskip=1 / chroma_qp_offset=-3 / threads=16 / lookahead_threads=4 / sliced_threads=0 / nr=0 / decimate=1 / interlaced=0 / bluray_compat=0 / constrained_intra=0 / bframes=3 / b_pyramid=2 / b_adapt=2 / b_bias=0 / direct=3 / weightb=1 / open_gop=0 / weightp=2 / keyint=250 / keyint_min=25 / scenecut=40 / intra_refresh=0 / rc_lookahead=50 / rc=2pass / mbtree=1 / bitrate=2500 / ratetol=1.0 / qcomp=0.60 / qpmin=0 / qpmax=69 / qpstep=4 / cplxblur=20.0 / qblur=0.5 / vbv_maxrate=31250 / vbv_bufsize=31250 / nal_hrd=none / filler=0 / ip_ratio=1.40 / aq=3:1.00
Encoded date : UTC 2021-07-09 06:33:45
Tagged date : UTC 2021-07-09 06:33:45
Codec configuration box : avcC

Audio
ID : 2
Format : AAC LC
Format/Info : Advanced Audio Codec Low Complexity
Codec ID : mp4a-40-2
Duration : 2 h 13 min
Duration_LastFrame : -11 ms
Bit rate mode : Constant
Bit rate : 224 kb/s
Channel(s) : 6 channels
Channel layout : C L R Ls Rs LFE
Sampling rate : 48.0 kHz
Frame rate : 46.875 FPS (1024 SPF)
Compression mode : Lossy
Stream size : 214 MiB (8)
Language : English
Default : Yes
Alternate group : 1
Encoded date : UTC 2021-07-09 06:33:45
Tagged date : UTC 2021-07-09 06:33:45
Kategoria:DivX - XviD
Ocena: N/A
Rozmiar:2.55 GiB
Dodane:13/07/2021 13:52:02
Uploader:Ishimura
Statystyki:Seedów: 1314   Leecherów: 137
Ostatnie Uaktualnienie26/11/2021 18:21:21


Brak komentarzy...


Wstecz
Uwaga!!!
Zaden z plikow znajdujacych sie w serwisie nie znajduje sie na serwerze. Torrenty sa wlasnoscia użytkownikow. Administrator serwisu ani wlasciciel serwera nie moze wiec poniesc konsekwencji za to co uzytkownicy wstawiaja, lub za to co czynia na stronie. Nie mozesz takze uzywac tego serwisu do rozpowszechniania lub sciagania materialow do ktorych nie masz odpowiednich praw lub licencji. Uzytkownicy odpowiedzialni są za przestrzeganie tych zasad. Ta strona nie zajmuje sie rozpowszechnianiem plikow chronionych prawem autorskim.

[ Execution time: 0.0224 sec. ] - [Memory usage: 1.97 MiB] - [ GZIP: disabled ]