Witamy Guest (Zaloguj) Zarejestruj się Przypomnij hasło Torrenty Kontakt Napisy PL


Torrent Kategorie
 » Wszystkie torrenty
Filmy :
 » DivX - XviD51436  
 » RMVB5168  
 » VCD - SVCD64  
 » DVD-R2074  
 » HDTV-HD-DVD901  
 » x 2644082  
 » 3D98  
 » 4K159  
 » Seriale16780  
Gry :
 » Gry PC11816  
 » Gry Konsole1447  
 » Poradniki i inne3  
Muzyka :
 » Albumy48369  
 » Teledyski/Koncerty3853  
Dokumenty :
 » E-Booki14142  
 » Audiobooki5133  
 » Komiksy645  
 » Czasopisma27  
Programy :
 » Windows6215  
 » Linux + Macintosh295  
Inne :
 » Dla Dzieci3156  
 » Sport1163  
 » GSM - PDA905  
 » Manga - Anime2392  
 » Pozostałe - Różne1353  
Erotyka :
 » Filmy23649  
 » Zdjęcia92  
 » Czasopisma erotyczne17  
 » Gry erotyczne16  

Detale Torrenta
Nazwa plikuSEAL Team S05E05 [1080p.AMZN.WEBRip.DDP5.1.x264-NTb] [ENG] [Sub.ENG]
Torrent:SEAL Team S05E05 [1080p.AMZN.WEBRip.DDP5.1.x264-NTb] [ENG] [Sub.ENG].torrent
Info Hash:10453193b0460d3b9ed776c4cde68dbd6f496b2a
Opis:

Info
Premiera sezonu 5: 10.10.2020r. USA Stacja CBS
Gatunek: Dramat, Wojenny, Akcja
Muzyka: A. Patrick Rose, W.G. Snuffy Walden
Zdjęcia: James M. Muro, Gonzalo Amat
https://www.thetvdb.com/series/seal-team
https://www.tvmaze.com/shows/28160/seal-team
https://www.cbs.com/shows/seal-team/
https://www.filmweb.pl/serial/Seal+Team-2017-788553
https://www.imdb.com/title/tt6473344/

Opis
SEAL Team skupia się na zawodowym i prywatnym życiu żołnierzy elitarnej jednostki Marynarki Wojennej Stanów Zjednoczonych. Serial opowiada o ich treningach, planowaniu i strategiach, a także wypełnianiu najbardziej niebezpiecznych misji.

Obsada


- David Boreanaz .... Jason Hayes
- Max Thieriot .... Clay Spenser
- Neil Brown Jr. .... Ray Perry
- Jessica Par .... Mandy Ellis
- A.J. Buckley .... Sonny Quinn
- Toni Trucks .... Lisa Davis
- Judd Lormand .... Komandor porucznik Eric Blackburn
- Justin Melnick .... Brock

Screenshot / Wideo


Dane Techniczne
SEAL.Team.S05E05.Frog.on.the.Tracks.1080p.AMZN.WEBRip.DDP5.1.x264-NTb
MediaInfo
Video
ID : 1
Format : AVC
Format/Info : Advanced Video Codec
Format profile : HighL4
Format settings : CABAC / 4 Ref Frames
Format settings, CABAC : Yes
Format settings, Reference frames : 4 frames
Codec ID : V_MPEG4/ISO/AVC
Duration : 42 min 34 s
Bit rate mode : Constant
Bit rate : 8 985 kb/s
Nominal bit rate : 10 000 kb/s
Width : 1 920 pixels
Height : 1 080 pixels
Display aspect ratio : 16:9
Frame rate mode : Constant
Frame rate : 24.000 FPS
Color space : YUV
Chroma subsampling : 4:2:0
Bit depth : 8 bits
Scan type : Progressive
Bits/(PixelFrame) : 0.181
Stream size : 2.67 GiB (93)
Default : Yes
Forced : No
Color range : Limited
Color primaries : BT.709
Transfer characteristics : BT.709
Matrix coefficients : BT.709

Audio
ID : 2
Format : E-AC-3
Format/Info : Enhanced AC-3
Commercial name : Dolby Digital Plus
Codec ID : A_EAC3
Duration : 42 min 34 s
Bit rate mode : Constant
Bit rate : 640 kb/s
Channel(s) : 6 channels
Channel layout : L R C LFE Ls Rs
Sampling rate : 48.0 kHz
Frame rate : 31.250 FPS (1536 SPF)
Compression mode : Lossy
Stream size : 195 MiB (7)
Language : English
Service kind : Complete Main
Default : Yes
Forced : No

Text #1
ID : 3
Format : UTF-8
Codec ID : S_TEXT/UTF8
Codec ID/Info : UTF-8 Plain Text
Duration : 41 min 39 s
Bit rate : 78 b/s
Count of elements : 655
Stream size : 23.8 KiB (0)
Language : English
Default : No
Forced : No

Text #2
ID : 4
Format : UTF-8
Codec ID : S_TEXT/UTF8
Codec ID/Info : UTF-8 Plain Text
Duration : 41 min 39 s
Bit rate : 83 b/s
Count of elements : 727
Stream size : 25.6 KiB (0)
Title : SDH
Language : English
Default : No
Forced : No
Kategoria:Seriale
Ocena: N/A
Rozmiar:0.00 BiT
Dodane:06/12/2021 04:12:02
Uploader:Ishimura
Statystyki:Seedów: -/-    Leecherów: -/-


Brak komentarzy...


Wstecz
Uwaga!!!
Zaden z plikow znajdujacych sie w serwisie nie znajduje sie na serwerze. Torrenty sa wlasnoscia użytkownikow. Administrator serwisu ani wlasciciel serwera nie moze wiec poniesc konsekwencji za to co uzytkownicy wstawiaja, lub za to co czynia na stronie. Nie mozesz takze uzywac tego serwisu do rozpowszechniania lub sciagania materialow do ktorych nie masz odpowiednich praw lub licencji. Uzytkownicy odpowiedzialni są za przestrzeganie tych zasad. Ta strona nie zajmuje sie rozpowszechnianiem plikow chronionych prawem autorskim.

[ Execution time: 0.0120 sec. ] - [Memory usage: 1.97 MiB] - [ GZIP: disabled ]