Witamy Guest (Zaloguj) Zarejestruj się Przypomnij hasło Torrenty Kontakt Napisy PL


Torrent Kategorie
 » Wszystkie torrenty
Filmy :
 » DivX - XviD59785  
 » RMVB5168  
 » VCD - SVCD64  
 » DVD-R2076  
 » HDTV-HD-DVD1145  
 » x 2645435  
 » 3D98  
 » 4K252  
 » Seriale19017  
Gry :
 » Gry PC13592  
 » Gry Konsole1448  
 » Poradniki i inne3  
Muzyka :
 » Albumy50192  
 » Teledyski/Koncerty3871  
Dokumenty :
 » E-Booki14533  
 » Audiobooki6120  
 » Komiksy645  
 » Czasopisma79  
Programy :
 » Windows7260  
 » Linux + Macintosh309  
Inne :
 » Dla Dzieci3216  
 » Sport1383  
 » GSM - PDA909  
 » Manga - Anime2400  
 » Pozostałe - Różne1356  
Erotyka :
 » Filmy25513  
 » Zdjęcia94  
 » Czasopisma erotyczne17  
 » Gry erotyczne16  

Detale Torrenta
Nazwa plikuStar Trek Picard S02E01 (The Star Gazer) [1080p.AMZN.WEBRip.DDP5.1.x264-NTb] [ENG] [Sub.ENG]
Torrent:Star Trek Picard S02E01 (The Star Gazer) [1080p.AMZN.WEBRip.DDP5.1.x264-NTb] [ENG] [Sub.ENG].torrent
Info Hash:d3cf657698b4dd222a80e0b1738b7c7d317ce6a5
Opis:

Info
Gatunek: Sci-Fi
Produkcja: USA
Stacja telewizyjna: CBS All Access, Paramount+
Reżyseria: Hanelle M. Culpepper, Jonathan Frakes
Scenariusz: Gene Roddenberry, Alex Kurtzman, Michael Chabon
https://www.thetvdb.com/series/star-trek-picard
https://www.tvmaze.com/shows/42193/star-trek-picard
https://www.filmweb.pl/serial/Star+Trek3A+Picard-2020-831205
https://www.imdb.com/title/tt8806524/

Opis
Admirał Jean-Luc Picard od 14 lat jest na emeryturze. Wolny czas spędza w rodzinnej posiadłości, doglądając plantacji wina. Jednak nie jest to spokojna emerytura. Nocami prześladuje go koszmar zagłady na Marsie. Planeta w wyniku ataku terrorystycznego została kompletnie zniszczona. Tysiące ludzi straciło życie. Kto jest za to odpowiedzialny? Co z tym wszystkim ma wspólnego Gwiezdna Flota i sam Picard? To właśnie jest główna oś fabuły tego sezonu.

Obsada
Patrick Stewart .... Jean-Luc Picard
Santiago Cabrera .... Cristobal &quotChris&quot Rios
Isa Briones .... Dahj
Alison Pill .... Doktor Agnes Jurati
Harry Treadaway .... Narek
Michelle Hurd .... Raffi Musiker

Screenshot / Wideo


Dane Techniczne
Star.Trek.Picard.S02E01.The.Star.Gazer.1080p.AMZN.WEBRip.DDP5.1.x264-NTb
MediaInfo
Video
ID : 1
Format : AVC
Format/Info : Advanced Video Codec
Format profile : HighL4
Format settings : CABAC / 4 Ref Frames
Format settings, CABAC : Yes
Format settings, Reference frames : 4 frames
Codec ID : V_MPEG4/ISO/AVC
Duration : 55 min 32 s
Bit rate mode : Constant
Bit rate : 5 886 kb/s
Nominal bit rate : 10 000 kb/s
Width : 1 920 pixels
Height : 800 pixels
Display aspect ratio : 2.40:1
Frame rate mode : Constant
Frame rate : 24.000 FPS
Color space : YUV
Chroma subsampling : 4:2:0
Bit depth : 8 bits
Scan type : Progressive
Bits/(PixelFrame) : 0.160
Stream size : 2.28 GiB (90)
Default : Yes
Forced : No
Color range : Limited
Color primaries : BT.709
Transfer characteristics : BT.709
Matrix coefficients : BT.709

Audio
ID : 2
Format : E-AC-3
Format/Info : Enhanced AC-3
Commercial name : Dolby Digital Plus
Codec ID : A_EAC3
Duration : 55 min 32 s
Bit rate mode : Constant
Bit rate : 640 kb/s
Channel(s) : 6 channels
Channel layout : L R C LFE Ls Rs
Sampling rate : 48.0 kHz
Frame rate : 31.250 FPS (1536 SPF)
Compression mode : Lossy
Stream size : 254 MiB (10)
Language : English
Service kind : Complete Main
Default : Yes
Forced : No

Text #1
ID : 3
Format : UTF-8
Codec ID : S_TEXT/UTF8
Codec ID/Info : UTF-8 Plain Text
Duration : 52 min 59 s
Bit rate : 55 b/s
Count of elements : 729
Stream size : 21.4 KiB (0)
Language : English
Default : No
Forced : No

Text #2
ID : 4
Format : UTF-8
Codec ID : S_TEXT/UTF8
Codec ID/Info : UTF-8 Plain Text
Duration : 53 min 5 s
Bit rate : 60 b/s
Count of elements : 814
Stream size : 23.5 KiB (0)
Title : SDH
Language : English
Default : No
Forced : No
Kategoria:Seriale
Ocena: N/A
Rozmiar:2.53 GiB
Dodane:04/03/2022 03:16:02
Uploader:Ishimura
Statystyki:Seedów: 653   Leecherów: 40
Ostatnie Uaktualnienie09/03/2022 19:56:28


Brak komentarzy...


Wstecz
Uwaga!!!
Zaden z plikow znajdujacych sie w serwisie nie znajduje sie na serwerze. Torrenty sa wlasnoscia użytkownikow. Administrator serwisu ani wlasciciel serwera nie moze wiec poniesc konsekwencji za to co uzytkownicy wstawiaja, lub za to co czynia na stronie. Nie mozesz takze uzywac tego serwisu do rozpowszechniania lub sciagania materialow do ktorych nie masz odpowiednich praw lub licencji. Uzytkownicy odpowiedzialni są za przestrzeganie tych zasad. Ta strona nie zajmuje sie rozpowszechnianiem plikow chronionych prawem autorskim.

[ Execution time: 0.0201 sec. ] - [Memory usage: 1.97 MiB] - [ GZIP: disabled ]