Witamy Guest (Zaloguj) Zarejestruj się Przypomnij hasło Torrenty Kontakt Napisy PL


Torrent Kategorie
 » Wszystkie torrenty
Filmy :
 » DivX - XviD55191  
 » RMVB5168  
 » VCD - SVCD64  
 » DVD-R2075  
 » HDTV-HD-DVD992  
 » x 2644368  
 » 3D98  
 » 4K186  
 » Seriale17666  
Gry :
 » Gry PC12819  
 » Gry Konsole1448  
 » Poradniki i inne3  
Muzyka :
 » Albumy49697  
 » Teledyski/Koncerty3869  
Dokumenty :
 » E-Booki14421  
 » Audiobooki6029  
 » Komiksy645  
 » Czasopisma44  
Programy :
 » Windows6679  
 » Linux + Macintosh303  
Inne :
 » Dla Dzieci3156  
 » Sport1260  
 » GSM - PDA908  
 » Manga - Anime2398  
 » Pozostałe - Różne1353  
Erotyka :
 » Filmy24119  
 » Zdjęcia92  
 » Czasopisma erotyczne17  
 » Gry erotyczne21  

Detale Torrenta
Nazwa plikuMoon Knight 2022 [S01E03] [1080p.DSNP.WEB-DL.DDP5.1.Atmos.H.264-CM] [Napisy PL]
Torrent:Moon Knight 2022 [S01E03] [1080p.DSNP.WEB-DL.DDP5.1.Atmos.H.264-CM] [Napisy PL].torrent
Info Hash:618406d64bec9a456b8988891c8bc703ff23c4b5
Opis:



Info

Produkcja: USA
Gatunek: Akcja
Twórca: Jeremy Slater
Platforma: Disney+
Premiera: 30 marca 2022

Opis

Moon Knight to alter ego herosa, Marka Spectora, byłego agenta CIA, który został prawie zabity przez terrorystę znanego jako Bushman. Od śmierci ocalił go jednak bóg Księżyca, Khonshu. Po tym wydarzeniu wzrosła siła i wytrzymałość bohatera. Spector ostatecznie pokonał Bushmana, przywdziewając potem swój biały, charakterystyczny strój.

Obsada

Oscar Isaac .... Moon Knight
Ethan Hawke .... Arthur Harrow
May Calamawy .... Layla El-Faouly
F. Murray Abraham .... Khonshu (głos)
Karim El Hakim .... Khonshu
Lucy Thackeray .... Donna
Saffron Hocking .... Dylan
Shaun Scott .... Crawley

https://www.youtube.com/watch?v=x7Krla

Dane Techniczne

Video
ID : 1
Format : AVC
Format/Info : Advanced Video Codec
Format profile : HighL4
Format settings : CABAC / 4 Ref Frames
Format settings, CABAC : Yes
Format settings, Reference frames : 4 frames
Codec ID : V_MPEG4/ISO/AVC
Duration : 50 min 25 s
Bit rate mode : Variable
Bit rate : 6 902 kb/s
Maximum bit rate : 8 250 kb/s
Width : 1 920 pixels
Height : 1 080 pixels
Display aspect ratio : 16:9
Frame rate mode : Constant
Frame rate : 24.000 FPS
Color space : YUV
Chroma subsampling : 4:2:0
Bit depth : 8 bits
Scan type : Progressive
Bits/(PixelFrame) : 0.139
Stream size : 2.43 GiB (90)
Language : English
Default : Yes
Forced : No
Color range : Limited
Color primaries : BT.709
Transfer characteristics : BT.709
Matrix coefficients : BT.709

Audio
ID : 2
Format : E-AC-3 JOC
Format/Info : Enhanced AC-3 with Joint Object Coding
Commercial name : Dolby Digital Plus with Dolby Atmos
Codec ID : A_EAC3
Duration : 50 min 25 s
Bit rate mode : Constant
Bit rate : 768 kb/s
Channel(s) : 6 channels
Channel layout : L R C LFE Ls Rs
Sampling rate : 48.0 kHz
Frame rate : 31.250 FPS (1536 SPF)
Compression mode : Lossy
Stream size : 277 MiB (10)
Language : English
Service kind : Complete Main
Default : Yes
Forced : No
Complexity index : 16
Number of dynamic objects : 15
Bed channel count : 1 channel
Bed channel configuration : LFE

Text #1
ID : 3
Format : UTF-8
Codec ID : S_TEXT/UTF8
Codec ID/Info : UTF-8 Plain Text
Duration : 45 min 56 s
Bit rate : 58 b/s
Count of elements : 638
Stream size : 19.6 KiB (0)
Title : SDH
Language : English
Default : No
Forced : No

Text #2
ID : 4
Format : UTF-8
Codec ID : S_TEXT/UTF8
Codec ID/Info : UTF-8 Plain Text
Duration : 45 min 56 s
Bit rate : 51 b/s
Count of elements : 545
Stream size : 17.4 KiB (0)
Language : English
Default : No
Forced : No

Text #3
ID : 5
Format : UTF-8
Codec ID : S_TEXT/UTF8
Codec ID/Info : UTF-8 Plain Text
Duration : 50 min 17 s
Bit rate : 43 b/s
Count of elements : 547
Stream size : 16.1 KiB (0)
Language : Czech
Default : No
Forced : No

Text #4
ID : 6
Format : UTF-8
Codec ID : S_TEXT/UTF8
Codec ID/Info : UTF-8 Plain Text
Duration : 50 min 17 s
Bit rate : 42 b/s
Count of elements : 390
Stream size : 15.6 KiB (0)
Language : Danish
Default : No
Forced : No

Text #5
ID : 7
Format : UTF-8
Codec ID : S_TEXT/UTF8
Codec ID/Info : UTF-8 Plain Text
Duration : 50 min 17 s
Bit rate : 45 b/s
Count of elements : 543
Stream size : 16.9 KiB (0)
Language : German
Default : No
Forced : No

Text #6
ID : 8
Format : UTF-8
Codec ID : S_TEXT/UTF8
Codec ID/Info : UTF-8 Plain Text
Duration : 50 min 17 s
Bit rate : 82 b/s
Count of elements : 549
Stream size : 30.5 KiB (0)
Language : Greek
Default : No
Forced : No

Text #7
ID : 9
Format : UTF-8
Codec ID : S_TEXT/UTF8
Codec ID/Info : UTF-8 Plain Text
Duration : 50 min 17 s
Bit rate : 45 b/s
Count of elements : 549
Stream size : 16.6 KiB (0)
Language : Spanish
Default : No
Forced : No

Text #8
ID : 10
Format : UTF-8
Codec ID : S_TEXT/UTF8
Codec ID/Info : UTF-8 Plain Text
Duration : 50 min 17 s
Bit rate : 47 b/s
Count of elements : 548
Stream size : 17.5 KiB (0)
Title : Latin American
Language : Spanish
Default : No
Forced : No

Text #9
ID : 11
Format : UTF-8
Codec ID : S_TEXT/UTF8
Codec ID/Info : UTF-8 Plain Text
Duration : 50 min 17 s
Bit rate : 41 b/s
Count of elements : 550
Stream size : 15.4 KiB (0)
Language : Finnish
Default : No
Forced : No

Text #10
ID : 12
Format : UTF-8
Codec ID : S_TEXT/UTF8
Codec ID/Info : UTF-8 Plain Text
Duration : 50 min 17 s
Bit rate : 47 b/s
Count of elements : 544
Stream size : 17.6 KiB (0)
Language : French
Default : No
Forced : No

Text #11
ID : 13
Format : UTF-8
Codec ID : S_TEXT/UTF8
Codec ID/Info : UTF-8 Plain Text
Duration : 50 min 16 s
Bit rate : 47 b/s
Count of elements : 543
Stream size : 17.4 KiB (0)
Title : Canadian
Language : French
Default : No
Forced : No

Text #12
ID : 14
Format : UTF-8
Codec ID : S_TEXT/UTF8
Codec ID/Info : UTF-8 Plain Text
Duration : 50 min 17 s
Bit rate : 45 b/s
Count of elements : 546
Stream size : 16.7 KiB (0)
Language : Hungarian
Default : No
Forced : No

Text #13
ID : 15
Format : UTF-8
Codec ID : S_TEXT/UTF8
Codec ID/Info : UTF-8 Plain Text
Duration : 50 min 17 s
Bit rate : 45 b/s
Count of elements : 549
Stream size : 16.9 KiB (0)
Language : Italian
Default : No
Forced : No

Text #14
ID : 16
Format : UTF-8
Codec ID : S_TEXT/UTF8
Codec ID/Info : UTF-8 Plain Text
Duration : 50 min 17 s
Bit rate : 42 b/s
Count of elements : 533
Stream size : 15.8 KiB (0)
Language : Japanese
Default : No
Forced : No

Text #15
ID : 17
Format : UTF-8
Codec ID : S_TEXT/UTF8
Codec ID/Info : UTF-8 Plain Text
Duration : 50 min 17 s
Bit rate : 51 b/s
Count of elements : 551
Stream size : 19.0 KiB (0)
Language : Korean
Default : No
Forced : No

Text #16
ID : 18
Format : UTF-8
Codec ID : S_TEXT/UTF8
Codec ID/Info : UTF-8 Plain Text
Duration : 50 min 17 s
Bit rate : 45 b/s
Count of elements : 516
Stream size : 16.6 KiB (0)
Language : Dutch
Default : No
Forced : No

Text #17
ID : 19
Format : UTF-8
Codec ID : S_TEXT/UTF8
Codec ID/Info : UTF-8 Plain Text
Duration : 50 min 17 s
Bit rate : 44 b/s
Count of elements : 549
Stream size : 16.4 KiB (0)
Language : Norwegian
Default : No
Forced : No

Text #18
ID : 20
Format : UTF-8
Codec ID : S_TEXT/UTF8
Codec ID/Info : UTF-8 Plain Text
Duration : 50 min 17 s
Bit rate : 40 b/s
Count of elements : 545
Stream size : 14.8 KiB (0)
Language : Polish
Default : No
Forced : No

Text #19
ID : 21
Format : UTF-8
Codec ID : S_TEXT/UTF8
Codec ID/Info : UTF-8 Plain Text
Duration : 50 min 17 s
Bit rate : 48 b/s
Count of elements : 551
Stream size : 17.8 KiB (0)
Language : Portuguese
Default : No
Forced : No

Text #20
ID : 22
Format : UTF-8
Codec ID : S_TEXT/UTF8
Codec ID/Info : UTF-8 Plain Text
Duration : 50 min 17 s
Bit rate : 48 b/s
Count of elements : 551
Stream size : 18.0 KiB (0)
Title : Brazilian
Language : Portuguese
Default : No
Forced : No

Text #21
ID : 23
Format : UTF-8
Codec ID : S_TEXT/UTF8
Codec ID/Info : UTF-8 Plain Text
Duration : 50 min 17 s
Bit rate : 44 b/s
Count of elements : 548
Stream size : 16.3 KiB (0)
Language : Romanian
Default : No
Forced : No

Text #22
ID : 24
Format : UTF-8
Codec ID : S_TEXT/UTF8
Codec ID/Info : UTF-8 Plain Text
Duration : 50 min 17 s
Bit rate : 46 b/s
Count of elements : 548
Stream size : 17.2 KiB (0)
Language : Slovak
Default : No
Forced : No

Text #23
ID : 25
Format : UTF-8
Codec ID : S_TEXT/UTF8
Codec ID/Info : UTF-8 Plain Text
Duration : 50 min 17 s
Bit rate : 44 b/s
Count of elements : 551
Stream size : 16.4 KiB (0)
Language : Swedish
Default : No
Forced : No

Text #24
ID : 26
Format : UTF-8
Codec ID : S_TEXT/UTF8
Codec ID/Info : UTF-8 Plain Text
Duration : 50 min 17 s
Bit rate : 46 b/s
Count of elements : 550
Stream size : 17.3 KiB (0)
Language : Turkish
Default : No
Forced : No

Text #25
ID : 27
Format : UTF-8
Codec ID : S_TEXT/UTF8
Codec ID/Info : UTF-8 Plain Text
Duration : 50 min 17 s
Bit rate : 36 b/s
Count of elements : 551
Stream size : 13.3 KiB (0)
Title : Hong Kong
Language : Chinese
Default : No
Forced : No

Text #26
ID : 28
Format : UTF-8
Codec ID : S_TEXT/UTF8
Codec ID/Info : UTF-8 Plain Text
Duration : 50 min 17 s
Bit rate : 42 b/s
Count of elements : 551
Stream size : 15.5 KiB (0)
Title : Simplified
Language : Chinese
Default : No
Forced : No

Text #27
ID : 29
Format : UTF-8
Codec ID : S_TEXT/UTF8
Codec ID/Info : UTF-8 Plain Text
Duration : 50 min 17 s
Bit rate : 36 b/s
Count of elements : 551
Stream size : 13.6 KiB (0)
Title : Traditional
Language : Chinese
Default : No
Forced : No
Kategoria:Seriale
Ocena:
Rozmiar:2.70 GiB
Dodane:14/04/2022 04:44:02
Uploader:Ishimura
Statystyki:Seedów: 0   Leecherów: 0
Ostatnie Uaktualnienie08/06/2022 17:24:28


Brak komentarzy...


Wstecz
Uwaga!!!
Zaden z plikow znajdujacych sie w serwisie nie znajduje sie na serwerze. Torrenty sa wlasnoscia użytkownikow. Administrator serwisu ani wlasciciel serwera nie moze wiec poniesc konsekwencji za to co uzytkownicy wstawiaja, lub za to co czynia na stronie. Nie mozesz takze uzywac tego serwisu do rozpowszechniania lub sciagania materialow do ktorych nie masz odpowiednich praw lub licencji. Uzytkownicy odpowiedzialni są za przestrzeganie tych zasad. Ta strona nie zajmuje sie rozpowszechnianiem plikow chronionych prawem autorskim.

[ Execution time: 0.0253 sec. ] - [Memory usage: 1.97 MiB] - [ GZIP: disabled ]