Witamy Guest (Zaloguj) Zarejestruj się Przypomnij hasło Torrenty Kontakt Napisy PL


Torrent Kategorie
 » Wszystkie torrenty
Filmy :
 » DivX - XviD55191  
 » RMVB5168  
 » VCD - SVCD64  
 » DVD-R2075  
 » HDTV-HD-DVD992  
 » x 2644368  
 » 3D98  
 » 4K186  
 » Seriale17666  
Gry :
 » Gry PC12819  
 » Gry Konsole1448  
 » Poradniki i inne3  
Muzyka :
 » Albumy49697  
 » Teledyski/Koncerty3869  
Dokumenty :
 » E-Booki14421  
 » Audiobooki6029  
 » Komiksy645  
 » Czasopisma44  
Programy :
 » Windows6679  
 » Linux + Macintosh303  
Inne :
 » Dla Dzieci3156  
 » Sport1260  
 » GSM - PDA908  
 » Manga - Anime2398  
 » Pozostałe - Różne1353  
Erotyka :
 » Filmy24119  
 » Zdjęcia92  
 » Czasopisma erotyczne17  
 » Gry erotyczne21  

Detale Torrenta
Nazwa plikuNowy Eden - Bienvenidos a Edn 2022 [S01] [SPANISH] [1080p.NF.WEBRip.DDP5.1.Atmos.x264-TBD] [Napisy PL]
Torrent:Nowy Eden - Bienvenidos a Edn 2022 [S01] [SPANISH] [1080p.NF.WEBRip.DDP5.1.Atmos.x264-TBD] [Napisy PL].torrent
Info Hash:728dac42f281a72a875afd0e0c7bd188c2f8fe3f
Opis:



Info

Produkcja: Hiszpania
Gatunek: Dramat, Thriller
Twórca: Joaqun Górriz
Platforma: Netflix
Premiera: 6 maja 2022

Opis

Grupa młodych ludzi udaje się na imprezę na odludną wyspę. Na miejscu okazuje się jednak, że ten pozorny raj jest pełen niebezpiecznych tajemnic i pułapek.

Obsada

Amaia Aberasturi .... Zoa
Berta Casta? .... Gaby
Amaia Salamanca .... Astrid
Albert Baró .... Aldo
Lola Rodrguez .... Maika
Guillermo Pfening .... Erik
Bego?a Vargas .... Bel

Dane Techniczne

Video
ID : 1
Format : AVC
Format/Info : Advanced Video Codec
Format profile : MainL4
Format settings : CABAC / 3 Ref Frames
Format settings, CABAC : Yes
Format settings, Reference frames : 3 frames
Codec ID : V_MPEG4/ISO/AVC
Duration : 46 min 4 s
Bit rate mode : Variable
Bit rate : 4 857 kb/s
Nominal bit rate : 3 992 kb/s
Maximum bit rate : 11.2 Mb/s
Width : 1 920 pixels
Height : 1 080 pixels
Display aspect ratio : 16:9
Frame rate mode : Constant
Frame rate : 25.000 FPS
Color space : YUV
Chroma subsampling : 4:2:0
Bit depth : 8 bits
Scan type : Progressive
Bits/(PixelFrame) : 0.094
Stream size : 1.56 GiB (77)
Writing library : x264 core 148 r2727 7d026e8
Encoding settings : cabac=1 / ref=3 / deblock=1:0:0 / analyse=0x1:0x111 / me=umh / subme=10 / psy=1 / psy_rd=1.00:0.00 / mixed_ref=1 / me_range=24 / chroma_me=1 / trellis=2 / 8x8dct=0 / cqm=0 / deadzone=21,11 / fast_pskip=1 / chroma_qp_offset=-2 / threads=8 / lookahead_threads=1 / sliced_threads=0 / nr=0 / decimate=1 / interlaced=0 / bluray_compat=0 / stitchable=1 / constrained_intra=0 / bframes=2 / b_pyramid=0 / b_adapt=2 / b_bias=0 / direct=3 / weightb=1 / open_gop=0 / weightp=2 / keyint=250 / keyint_min=25 / scenecut=0 / intra_refresh=0 / rc_lookahead=50 / rc=2pass / mbtree=1 / bitrate=3992 / ratetol=1.0 / qcomp=0.50 / qpmin=6 / qpmax=51 / qpstep=4 / cplxblur=20.0 / qblur=0.5 / vbv_maxrate=11250 / vbv_bufsize=15000 / nal_hrd=vbr / filler=0 / ip_ratio=1.40 / aq=1:1.00
Default : Yes
Forced : No

Audio #1
ID : 2
Format : E-AC-3 JOC
Format/Info : Enhanced AC-3 with Joint Object Coding
Commercial name : Dolby Digital Plus with Dolby Atmos
Codec ID : A_EAC3
Duration : 46 min 4 s
Bit rate mode : Constant
Bit rate : 768 kb/s
Channel(s) : 6 channels
Channel layout : L R C LFE Ls Rs
Sampling rate : 48.0 kHz
Frame rate : 31.250 FPS (1536 SPF)
Compression mode : Lossy
Stream size : 253 MiB (12)
Language : Spanish
Service kind : Complete Main
Default : Yes
Forced : No
Complexity index : 16
Number of dynamic objects : 15
Bed channel count : 1 channel
Bed channel configuration : LFE

Audio #2
ID : 3
Format : E-AC-3
Format/Info : Enhanced AC-3
Commercial name : Dolby Digital Plus
Codec ID : A_EAC3
Duration : 46 min 4 s
Bit rate mode : Constant
Bit rate : 640 kb/s
Channel(s) : 6 channels
Channel layout : L R C LFE Ls Rs
Sampling rate : 48.0 kHz
Frame rate : 31.250 FPS (1536 SPF)
Compression mode : Lossy
Stream size : 211 MiB (10)
Language : English
Service kind : Complete Main
Default : No
Forced : No

Text #1
ID : 4
Format : UTF-8
Codec ID : S_TEXT/UTF8
Codec ID/Info : UTF-8 Plain Text
Duration : 35 min 22 s
Bit rate : 0 b/s
Count of elements : 8
Stream size : 129 Bytes (0)
Title : Forced
Language : Spanish
Default : Yes
Forced : Yes

Text #2
ID : 5
Format : UTF-8
Codec ID : S_TEXT/UTF8
Codec ID/Info : UTF-8 Plain Text
Duration : 44 min 59 s
Bit rate : 0 b/s
Count of elements : 12
Stream size : 245 Bytes (0)
Title : Forced
Language : English
Default : No
Forced : No

Text #3
ID : 6
Format : UTF-8
Codec ID : S_TEXT/UTF8
Codec ID/Info : UTF-8 Plain Text
Duration : 44 min 45 s
Bit rate : 47 b/s
Count of elements : 525
Stream size : 15.6 KiB (0)
Title : SDH
Language : Spanish
Default : No
Forced : No

Text #4
ID : 7
Format : UTF-8
Codec ID : S_TEXT/UTF8
Codec ID/Info : UTF-8 Plain Text
Duration : 44 min 59 s
Bit rate : 55 b/s
Count of elements : 372
Stream size : 18.4 KiB (0)
Language : Arabic
Default : No
Forced : No

Text #5
ID : 8
Format : UTF-8
Codec ID : S_TEXT/UTF8
Codec ID/Info : UTF-8 Plain Text
Duration : 44 min 59 s
Bit rate : 29 b/s
Count of elements : 371
Stream size : 9.79 KiB (0)
Language : Czech
Default : No
Forced : No

Text #6
ID : 9
Format : UTF-8
Codec ID : S_TEXT/UTF8
Codec ID/Info : UTF-8 Plain Text
Duration : 44 min 59 s
Bit rate : 28 b/s
Count of elements : 369
Stream size : 9.24 KiB (0)
Language : Danish
Default : No
Forced : No

Text #7
ID : 10
Format : UTF-8
Codec ID : S_TEXT/UTF8
Codec ID/Info : UTF-8 Plain Text
Duration : 44 min 59 s
Bit rate : 29 b/s
Count of elements : 362
Stream size : 9.67 KiB (0)
Language : German
Default : No
Forced : No

Text #8
ID : 11
Format : UTF-8
Codec ID : S_TEXT/UTF8
Codec ID/Info : UTF-8 Plain Text
Duration : 44 min 59 s
Bit rate : 49 b/s
Count of elements : 371
Stream size : 16.3 KiB (0)
Language : Greek
Default : No
Forced : No

Text #9
ID : 12
Format : UTF-8
Codec ID : S_TEXT/UTF8
Codec ID/Info : UTF-8 Plain Text
Duration : 44 min 59 s
Bit rate : 32 b/s
Count of elements : 371
Stream size : 10.7 KiB (0)
Language : English
Default : No
Forced : No

Text #10
ID : 13
Format : UTF-8
Codec ID : S_TEXT/UTF8
Codec ID/Info : UTF-8 Plain Text
Duration : 44 min 59 s
Bit rate : 29 b/s
Count of elements : 349
Stream size : 9.66 KiB (0)
Language : English
Default : No
Forced : No

Text #11
ID : 14
Format : UTF-8
Codec ID : S_TEXT/UTF8
Codec ID/Info : UTF-8 Plain Text
Duration : 44 min 59 s
Bit rate : 47 b/s
Count of elements : 541
Stream size : 15.5 KiB (0)
Title : SDH
Language : English
Default : No
Forced : No

Text #12
ID : 15
Format : UTF-8
Codec ID : S_TEXT/UTF8
Codec ID/Info : UTF-8 Plain Text
Duration : 44 min 59 s
Bit rate : 28 b/s
Count of elements : 287
Stream size : 9.25 KiB (0)
Language : Finnish
Default : No
Forced : No

Text #13
ID : 16
Format : UTF-8
Codec ID : S_TEXT/UTF8
Codec ID/Info : UTF-8 Plain Text
Duration : 44 min 59 s
Bit rate : 29 b/s
Count of elements : 370
Stream size : 9.78 KiB (0)
Language : French
Default : No
Forced : No

Text #14
ID : 17
Format : UTF-8
Codec ID : S_TEXT/UTF8
Codec ID/Info : UTF-8 Plain Text
Duration : 44 min 59 s
Bit rate : 48 b/s
Count of elements : 365
Stream size : 16.1 KiB (0)
Language : Hebrew
Default : No
Forced : No

Text #15
ID : 18
Format : UTF-8
Codec ID : S_TEXT/UTF8
Codec ID/Info : UTF-8 Plain Text
Duration : 44 min 59 s
Bit rate : 27 b/s
Count of elements : 367
Stream size : 8.93 KiB (0)
Language : Croatian
Default : No
Forced : No

Text #16
ID : 19
Format : UTF-8
Codec ID : S_TEXT/UTF8
Codec ID/Info : UTF-8 Plain Text
Duration : 44 min 57 s
Bit rate : 29 b/s
Count of elements : 359
Stream size : 9.77 KiB (0)
Language : Hungarian
Default : No
Forced : No

Text #17
ID : 20
Format : UTF-8
Codec ID : S_TEXT/UTF8
Codec ID/Info : UTF-8 Plain Text
Duration : 44 min 59 s
Bit rate : 30 b/s
Count of elements : 370
Stream size : 9.94 KiB (0)
Language : Indonesian
Default : No
Forced : No

Text #18
ID : 21
Format : UTF-8
Codec ID : S_TEXT/UTF8
Codec ID/Info : UTF-8 Plain Text
Duration : 44 min 59 s
Bit rate : 29 b/s
Count of elements : 371
Stream size : 9.80 KiB (0)
Language : Italian
Default : No
Forced : No

Text #19
ID : 22
Format : UTF-8
Codec ID : S_TEXT/UTF8
Codec ID/Info : UTF-8 Plain Text
Duration : 44 min 59 s
Bit rate : 32 b/s
Count of elements : 412
Stream size : 10.7 KiB (0)
Language : Japanese
Default : No
Forced : No

Text #20
ID : 23
Format : UTF-8
Codec ID : S_TEXT/UTF8
Codec ID/Info : UTF-8 Plain Text
Duration : 44 min 59 s
Bit rate : 36 b/s
Count of elements : 356
Stream size : 11.9 KiB (0)
Language : Korean
Default : No
Forced : No

Text #21
ID : 24
Format : UTF-8
Codec ID : S_TEXT/UTF8
Codec ID/Info : UTF-8 Plain Text
Duration : 44 min 59 s
Bit rate : 29 b/s
Count of elements : 363
Stream size : 9.57 KiB (0)
Language : Malay
Default : No
Forced : No

Text #22
ID : 25
Format : UTF-8
Codec ID : S_TEXT/UTF8
Codec ID/Info : UTF-8 Plain Text
Duration : 44 min 59 s
Bit rate : 28 b/s
Count of elements : 353
Stream size : 9.52 KiB (0)
Language : Norwegian Bokmal
Default : No
Forced : No

Text #23
ID : 26
Format : UTF-8
Codec ID : S_TEXT/UTF8
Codec ID/Info : UTF-8 Plain Text
Duration : 44 min 59 s
Bit rate : 28 b/s
Count of elements : 350
Stream size : 9.35 KiB (0)
Language : Dutch
Default : No
Forced : No

Text #24
ID : 27
Format : UTF-8
Codec ID : S_TEXT/UTF8
Codec ID/Info : UTF-8 Plain Text
Duration : 44 min 59 s
Bit rate : 27 b/s
Count of elements : 365
Stream size : 9.06 KiB (0)
Language : Polish
Default : No
Forced : No

Text #25
ID : 28
Format : UTF-8
Codec ID : S_TEXT/UTF8
Codec ID/Info : UTF-8 Plain Text
Duration : 41 min 43 s
Bit rate : 35 b/s
Count of elements : 356
Stream size : 10.9 KiB (0)
Title : Brazilian
Language : Portuguese
Default : No
Forced : No

Text #26
ID : 29
Format : UTF-8
Codec ID : S_TEXT/UTF8
Codec ID/Info : UTF-8 Plain Text
Duration : 41 min 43 s
Bit rate : 31 b/s
Count of elements : 368
Stream size : 9.67 KiB (0)
Title : Brazilian
Language : Portuguese
Default : No
Forced : No

Text #27
ID : 30
Format : UTF-8
Codec ID : S_TEXT/UTF8
Codec ID/Info : UTF-8 Plain Text
Duration : 43 min 40 s
Bit rate : 47 b/s
Count of elements : 493
Stream size : 15.1 KiB (0)
Title : Brazilian (SDH)
Language : Portuguese
Default : No
Forced : No

Text #28
ID : 31
Format : UTF-8
Codec ID : S_TEXT/UTF8
Codec ID/Info : UTF-8 Plain Text
Duration : 44 min 59 s
Bit rate : 29 b/s
Count of elements : 356
Stream size : 9.74 KiB (0)
Language : Portuguese
Default : No
Forced : No

Text #29
ID : 32
Format : UTF-8
Codec ID : S_TEXT/UTF8
Codec ID/Info : UTF-8 Plain Text
Duration : 44 min 59 s
Bit rate : 33 b/s
Count of elements : 373
Stream size : 11.1 KiB (0)
Language : Romanian
Default : No
Forced : No

Text #30
ID : 33
Format : UTF-8
Codec ID : S_TEXT/UTF8
Codec ID/Info : UTF-8 Plain Text
Duration : 44 min 59 s
Bit rate : 47 b/s
Count of elements : 377
Stream size : 15.7 KiB (0)
Language : Russian
Default : No
Forced : No

Text #31
ID : 34
Format : UTF-8
Codec ID : S_TEXT/UTF8
Codec ID/Info : UTF-8 Plain Text
Duration : 44 min 59 s
Bit rate : 29 b/s
Count of elements : 342
Stream size : 9.76 KiB (0)
Language : Swedish
Default : No
Forced : No

Text #32
ID : 35
Format : UTF-8
Codec ID : S_TEXT/UTF8
Codec ID/Info : UTF-8 Plain Text
Duration : 44 min 59 s
Bit rate : 73 b/s
Count of elements : 374
Stream size : 24.3 KiB (0)
Language : Thai
Default : No
Forced : No

Text #33
ID : 36
Format : UTF-8
Codec ID : S_TEXT/UTF8
Codec ID/Info : UTF-8 Plain Text
Duration : 44 min 59 s
Bit rate : 29 b/s
Count of elements : 369
Stream size : 9.59 KiB (0)
Language : Turkish
Default : No
Forced : No

Text #34
ID : 37
Format : UTF-8
Codec ID : S_TEXT/UTF8
Codec ID/Info : UTF-8 Plain Text
Duration : 44 min 57 s
Bit rate : 48 b/s
Count of elements : 385
Stream size : 16.0 KiB (0)
Language : Ukrainian
Default : No
Forced : No

Text #35
ID : 38
Format : UTF-8
Codec ID : S_TEXT/UTF8
Codec ID/Info : UTF-8 Plain Text
Duration : 44 min 59 s
Bit rate : 42 b/s
Count of elements : 367
Stream size : 13.9 KiB (0)
Language : Vietnamese
Default : No
Forced : No

Text #36
ID : 39
Format : UTF-8
Codec ID : S_TEXT/UTF8
Codec ID/Info : UTF-8 Plain Text
Duration : 44 min 59 s
Bit rate : 34 b/s
Count of elements : 372
Stream size : 11.3 KiB (0)
Title : Simplified
Language : Chinese
Default : No
Forced : No

Text #37
ID : 40
Format : UTF-8
Codec ID : S_TEXT/UTF8
Codec ID/Info : UTF-8 Plain Text
Duration : 44 min 59 s
Bit rate : 32 b/s
Count of elements : 371
Stream size : 10.8 KiB (0)
Title : Traditional
Language : Chinese
Default : No
Forced : No

Menu
00:03:52.920 : en:Intro
00:04:14.060 : en:Intro End
Kategoria:Seriale
Ocena: N/A
Rozmiar:12.94 GiB
Dodane:06/05/2022 12:36:02
Uploader:Ishimura
Statystyki:Seedów: 18   Leecherów: 7
Ostatnie Uaktualnienie20/06/2022 21:44:51


Brak komentarzy...


Wstecz
Uwaga!!!
Zaden z plikow znajdujacych sie w serwisie nie znajduje sie na serwerze. Torrenty sa wlasnoscia użytkownikow. Administrator serwisu ani wlasciciel serwera nie moze wiec poniesc konsekwencji za to co uzytkownicy wstawiaja, lub za to co czynia na stronie. Nie mozesz takze uzywac tego serwisu do rozpowszechniania lub sciagania materialow do ktorych nie masz odpowiednich praw lub licencji. Uzytkownicy odpowiedzialni są za przestrzeganie tych zasad. Ta strona nie zajmuje sie rozpowszechnianiem plikow chronionych prawem autorskim.

[ Execution time: 0.1806 sec. ] - [Memory usage: 1.97 MiB] - [ GZIP: disabled ]