Witamy Guest (Zaloguj) Zarejestruj się Przypomnij hasło Torrenty Kontakt Napisy PL


Torrent Kategorie
 » Wszystkie torrenty
Filmy :
 » DivX - XviD55191  
 » RMVB5168  
 » VCD - SVCD64  
 » DVD-R2075  
 » HDTV-HD-DVD992  
 » x 2644368  
 » 3D98  
 » 4K186  
 » Seriale17666  
Gry :
 » Gry PC12819  
 » Gry Konsole1448  
 » Poradniki i inne3  
Muzyka :
 » Albumy49697  
 » Teledyski/Koncerty3869  
Dokumenty :
 » E-Booki14421  
 » Audiobooki6029  
 » Komiksy645  
 » Czasopisma44  
Programy :
 » Windows6679  
 » Linux + Macintosh303  
Inne :
 » Dla Dzieci3156  
 » Sport1260  
 » GSM - PDA908  
 » Manga - Anime2398  
 » Pozostałe - Różne1353  
Erotyka :
 » Filmy24119  
 » Zdjęcia92  
 » Czasopisma erotyczne17  
 » Gry erotyczne21  

Detale Torrenta
Nazwa plikuHalo S01E07 (Inheritance) [1080p.AMZN.WEBRip.DDP5.1.x264-NTb] [ENG] [Sub:ENG]
Torrent:Halo S01E07 (Inheritance) [1080p.AMZN.WEBRip.DDP5.1.x264-NTb] [ENG] [Sub:ENG].torrent
Info Hash:e25d650403e07e57615a6cb9bbd556f1a33261ef
Opis:

Info
Produkcja: USA
Gatunek: Akcja, Sci-Fi
Reżyseria: Otto Bathurst
Scenariusz: Steven Kane, Kyle Killen
https://www.thetvdb.com/series/halo
https://www.tvmaze.com/shows/35158/halo
https://www.imdb.com/title/tt2934286/

Opis
Serial pokazuje epicki, 26-wieczny konflikt między ludzkością a obcym zagrożeniem znanym jako Przymierze. Halo? splata osobiste historie z akcją, przygodą i wizją przyszłości.

Obsada
Pablo Schreiber .... Master Chief
Yerin Ha .... Quan Ah
Natascha McElhone .... Dr Catherine Halsey
Bokeem Woodbine .... Soren-066
Shabana Azmi .... Admirał Margaret Parangosk
Bentley Kalu .... Spartan Vannak-13
Natasha Culzac .... Spartan Riz-028
Kate Kennedy .... Spartan Kai-125

Dane Techniczne



Halo.S01E07.Inheritance.1080p.AMZN.WEBRip.DDP5.1.x264-NTb
MediaInfo
Video
ID : 1
Format : AVC
Format/Info : Advanced Video Codec
Format profile : HighL4
Format settings : CABAC / 4 Ref Frames
Format settings, CABAC : Yes
Format settings, Reference frames : 4 frames
Codec ID : V_MPEG4/ISO/AVC
Duration : 50 min 44 s
Bit rate mode : Constant
Bit rate : 8 428 kb/s
Nominal bit rate : 10 000 kb/s
Width : 1 920 pixels
Height : 960 pixels
Display aspect ratio : 2.000
Frame rate mode : Constant
Frame rate : 24.000 FPS
Color space : YUV
Chroma subsampling : 4:2:0
Bit depth : 8 bits
Scan type : Progressive
Bits/(PixelFrame) : 0.191
Stream size : 2.99 GiB (92)
Default : Yes
Forced : No
Color range : Limited
Color primaries : BT.709
Transfer characteristics : BT.709
Matrix coefficients : BT.709

Audio
ID : 2
Format : E-AC-3 JOC
Format/Info : Enhanced AC-3 with Joint Object Coding
Commercial name : Dolby Digital Plus with Dolby Atmos
Codec ID : A_EAC3
Duration : 50 min 44 s
Bit rate mode : Constant
Bit rate : 768 kb/s
Channel(s) : 6 channels
Channel layout : L R C LFE Ls Rs
Sampling rate : 48.0 kHz
Frame rate : 31.250 FPS (1536 SPF)
Compression mode : Lossy
Delay relative to video : 20 ms
Stream size : 279 MiB (8)
Language : English
Service kind : Complete Main
Default : Yes
Forced : No
Complexity index : 16
Number of dynamic objects : 15
Bed channel count : 1 channel
Bed channel configuration : LFE

Text #1
ID : 3
Format : UTF-8
Codec ID : S_TEXT/UTF8
Codec ID/Info : UTF-8 Plain Text
Duration : 47 min 54 s
Bit rate : 42 b/s
Count of elements : 542
Stream size : 15.0 KiB (0)
Language : English
Default : No
Forced : No

Text #2
ID : 4
Format : UTF-8
Codec ID : S_TEXT/UTF8
Codec ID/Info : UTF-8 Plain Text
Duration : 50 min 42 s
Bit rate : 49 b/s
Count of elements : 732
Stream size : 18.3 KiB (0)
Title : SDH
Language : English
Default : No
Forced : No

Menu
00:05:33.000 : en:Intro
00:48:40.000 : en:Credits
Kategoria:Seriale
Ocena: N/A
Rozmiar:3.26 GiB
Dodane:09/05/2022 03:08:03
Uploader:Ishimura
Statystyki:Seedów: 321   Leecherów: 19
Ostatnie Uaktualnienie25/05/2022 17:19:01


Brak komentarzy...


Wstecz
Uwaga!!!
Zaden z plikow znajdujacych sie w serwisie nie znajduje sie na serwerze. Torrenty sa wlasnoscia użytkownikow. Administrator serwisu ani wlasciciel serwera nie moze wiec poniesc konsekwencji za to co uzytkownicy wstawiaja, lub za to co czynia na stronie. Nie mozesz takze uzywac tego serwisu do rozpowszechniania lub sciagania materialow do ktorych nie masz odpowiednich praw lub licencji. Uzytkownicy odpowiedzialni są za przestrzeganie tych zasad. Ta strona nie zajmuje sie rozpowszechnianiem plikow chronionych prawem autorskim.

[ Execution time: 0.0198 sec. ] - [Memory usage: 1.97 MiB] - [ GZIP: disabled ]