Witamy Guest (Zaloguj) Zarejestruj się Przypomnij hasło Torrenty Kontakt Napisy PL


Torrent Kategorie
 » Wszystkie torrenty
Filmy :
 » DivX - XviD55191  
 » RMVB5168  
 » VCD - SVCD64  
 » DVD-R2075  
 » HDTV-HD-DVD992  
 » x 2644368  
 » 3D98  
 » 4K186  
 » Seriale17666  
Gry :
 » Gry PC12819  
 » Gry Konsole1448  
 » Poradniki i inne3  
Muzyka :
 » Albumy49697  
 » Teledyski/Koncerty3869  
Dokumenty :
 » E-Booki14421  
 » Audiobooki6029  
 » Komiksy645  
 » Czasopisma44  
Programy :
 » Windows6679  
 » Linux + Macintosh303  
Inne :
 » Dla Dzieci3156  
 » Sport1260  
 » GSM - PDA908  
 » Manga - Anime2398  
 » Pozostałe - Różne1353  
Erotyka :
 » Filmy24119  
 » Zdjęcia92  
 » Czasopisma erotyczne17  
 » Gry erotyczne21  

Detale Torrenta
Nazwa plikuFormuła 1 2022 Grand Prix Miami Wyścig (08.05.2022) [1080i h264] [PL][ts]
Torrent:Formuła 1 2022 Grand Prix Miami Wyścig (08.05.2022) [1080i h264] [PL][ts].torrent
Info Hash:dc34a92e8542c463a0015e9f98f41dcb21902b5d
Opis:

Info

Formuła 1 2022 Grand Prix Miami Wyścig 08.05.2022

Dane Techniczne

Format : MPEG-TS
File size : 11.6 GiB
Duration : 2 h 11 min
Overall bit rate mode : Variable
Overall bit rate : 12.6 Mb/s

Video
ID : 2005 (0x7D5)
Menu ID : 3305 (0xCE9)
Format : AVC
Format/Info : Advanced Video Codec
Format profile : HighL4
Format settings : CABAC / 2 Ref Frames
Format settings, CABAC : Yes
Format settings, Reference : 2 frames
Format settings, GOP : M=3, N=12
Codec ID : 27
Duration : 2 h 11 min
Bit rate : 11.7 Mb/s
Nominal bit rate : 15.5 Mb/s
Width : 1 920 pixels
Height : 1 080 pixels
Display aspect ratio : 16:9
Frame rate : 25.000 FPS
Color space : YUV
Chroma subsampling : 4:2:0
Bit depth : 8 bits
Scan type : Interlaced
Scan type, store method : Separated fields
Scan order : Top Field First
Bits/(PixelFrame) : 0.227
Stream size : 10.8 GiB (93)
Writing library : x264 core 160 r3000

Audio
ID : 3009 (0xBC1)
Menu ID : 3305 (0xCE9)
Format : MPEG Audio
Format version : Version 1
Format profile : Layer 2
Codec ID : 3
Duration : 2 h 11 min
Bit rate mode : Constant
Bit rate : 256 kb/s
Channel(s) : 2 channels
Sampling rate : 48.0 kHz
Frame rate : 41.667 FPS (1152 SPF)
Compression mode : Lossy
Stream size : 241 MiB (2)
Language : Polish
Kategoria:Sport
Ocena: N/A
Rozmiar:11.63 GiB
Dodane:10/05/2022 03:48:03
Uploader:Ishimura
Statystyki:Seedów: 3   Leecherów: 5
Ostatnie Uaktualnienie11/05/2022 19:58:20


Brak komentarzy...


Wstecz
Uwaga!!!
Zaden z plikow znajdujacych sie w serwisie nie znajduje sie na serwerze. Torrenty sa wlasnoscia użytkownikow. Administrator serwisu ani wlasciciel serwera nie moze wiec poniesc konsekwencji za to co uzytkownicy wstawiaja, lub za to co czynia na stronie. Nie mozesz takze uzywac tego serwisu do rozpowszechniania lub sciagania materialow do ktorych nie masz odpowiednich praw lub licencji. Uzytkownicy odpowiedzialni są za przestrzeganie tych zasad. Ta strona nie zajmuje sie rozpowszechnianiem plikow chronionych prawem autorskim.

[ Execution time: 0.0088 sec. ] - [Memory usage: 1.97 MiB] - [ GZIP: disabled ]