Witamy Guest (Zaloguj) Zarejestruj się Przypomnij hasło Torrenty Kontakt Napisy PL


Torrent Kategorie
 » Wszystkie torrenty
Filmy :
 » DivX - XviD55191  
 » RMVB5168  
 » VCD - SVCD64  
 » DVD-R2075  
 » HDTV-HD-DVD989  
 » x 2644367  
 » 3D98  
 » 4K186  
 » Seriale17666  
Gry :
 » Gry PC12815  
 » Gry Konsole1448  
 » Poradniki i inne3  
Muzyka :
 » Albumy49696  
 » Teledyski/Koncerty3869  
Dokumenty :
 » E-Booki14421  
 » Audiobooki6029  
 » Komiksy645  
 » Czasopisma44  
Programy :
 » Windows6677  
 » Linux + Macintosh303  
Inne :
 » Dla Dzieci3156  
 » Sport1260  
 » GSM - PDA908  
 » Manga - Anime2398  
 » Pozostałe - Różne1353  
Erotyka :
 » Filmy24119  
 » Zdjęcia92  
 » Czasopisma erotyczne17  
 » Gry erotyczne21  

Detale Torrenta
Nazwa plikuDoktor Strange w multiwersum obłędu - Doctor Strange in the Multiverse of Madness 2022 [10Bit HDR] [2160p.WEB-DL.H265.AC.5.1] [Napisy PL] [MINI 4K]
Torrent:Doktor Strange w multiwersum obłędu - Doctor Strange in the Multiverse of Madness 2022 [10Bit HDR] [2160p.WEB-DL.H265.AC.5.1] [Napisy PL] [MINI 4K].torrent
Info Hash:ee9845650f67a76db99f99dc367aa14c89eb68b6
Opis:

Info
Produkcja: USA
Gatunek: Fantasy, Przygodowy
Premiera: 6 maja 2022 (Polska)
Reżyseria: Sam Raimi
Scenariusz: Michael Waldron

Opis
Film &quotDoktor Strange w multiwersum obłędu&quot wprowadza i rozwija pojęcie wieloświata do uniwersum Marvela. Wyrusz w nieznane z
doktorem Strangem, który z pomocą starych i nowych nadnaturalnych sojuszników przemierza zaskakujące i niebezpieczne alternatywne
światy, tocząc walkę z tajemniczym wrogiem.

Po wydarzeniach z &quotAvengers: Koniec gry&quot dr Stephen Strange kontynuuje walkę ze złem. Tym razem stawi czoło swojemu byłemu przyjacielowi Mordo.

Obsada
Benedict Cumberbatch .... Dr Stephen Strange
Elizabeth Olsen .... Scarlet Witch (Wanda Maximoff)
Chiwetel Ejiofor .... Baron Mordo
Benedict Wong .... Wong
Xochitl Gomez .... America Chavez
Rachel McAdams .... Dr Christine Palmer
Michael Stuhlbarg .... Dr Nic West
Sheila Atim .... Sara

Dane Techniczne
Video
Format : HEVC
Format/Info : High Efficiency Video Coding
Format profile : Main 10L5Main
HDR format : SMPTE ST 2086, HDR10 compatible
Codec ID : V_MPEGH/ISO/HEVC
Duration : 2 h 6 min
Bit rate : 5 255 kb/s
Width : 3 840 pixels
Height : 1 608 pixels
Display aspect ratio : 2.40:1
Frame rate mode : Variable
Frame rate : 23.976 (24000/1001) FPS
Color space : YUV
Chroma subsampling : 4:2:0 (Type 2)
Bit depth : 10 bits
Bits/(PixelFrame) : 0.035
Stream size : 4.64 GiB (89)
Default : Yes
Forced : No
Color range : Limited
Color primaries : BT.2020
Transfer characteristics : PQ
Matrix coefficients : BT.2020 non-constant
Mastering display color primaries : BT.2020
Mastering display luminance : min: 0.0050 cd/m2, max: 1000 cd/m2
Maximum Content Light Level : 1478 cd/m2
Maximum Frame-Average Light Level : 916 cd/m2

Audio
Format : AC-3
Format/Info : Audio Coding 3
Commercial name : Dolby Digital
Codec ID : A_AC3
Duration : 2 h 6 min
Bit rate mode : Constant
Bit rate : 640 kb/s
Channel(s) : 6 channels
Channel layout : L R C LFE Ls Rs
Sampling rate : 48.0 kHz
Frame rate : 31.250 FPS (1536 SPF)
Compression mode : Lossy
Stream size : 579 MiB (11)
Title : Original
Language : English
Service kind : Complete Main
Default : Yes
Forced : No

Text
Format : UTF-8
Codec ID : S_TEXT/UTF8
Codec ID/Info : UTF-8 Plain Text
Duration : 2 h 5 min
Bit rate : 30 b/s
Count of elements : 1249
Stream size : 28.1 KiB (0)
Title : Napisy PL
Language : Polish
Default : Yes
Forced : No
Kategoria:DivX - XviD
Ocena: N/A
Rozmiar:5.21 GiB
Dodane:22/06/2022 08:24:02
Uploader:Ishimura
Statystyki:Seedów: 12   Leecherów: 1
Ostatnie Uaktualnienie27/06/2022 18:46:42




tomasz04222/06/2022 19.13.03
A kiedy z dubbingiem ?


Wstecz
Uwaga!!!
Zaden z plikow znajdujacych sie w serwisie nie znajduje sie na serwerze. Torrenty sa wlasnoscia użytkownikow. Administrator serwisu ani wlasciciel serwera nie moze wiec poniesc konsekwencji za to co uzytkownicy wstawiaja, lub za to co czynia na stronie. Nie mozesz takze uzywac tego serwisu do rozpowszechniania lub sciagania materialow do ktorych nie masz odpowiednich praw lub licencji. Uzytkownicy odpowiedzialni są za przestrzeganie tych zasad. Ta strona nie zajmuje sie rozpowszechnianiem plikow chronionych prawem autorskim.

[ Execution time: 0.0213 sec. ] - [Memory usage: 1.97 MiB] - [ GZIP: disabled ]