Witamy Guest (Zaloguj) Zarejestruj się Przypomnij hasło Torrenty Kontakt Napisy PL


Torrent Kategorie
 » Wszystkie torrenty
Filmy :
 » DivX - XviD59785  
 » RMVB5168  
 » VCD - SVCD64  
 » DVD-R2076  
 » HDTV-HD-DVD1145  
 » x 2645435  
 » 3D98  
 » 4K252  
 » Seriale19016  
Gry :
 » Gry PC13592  
 » Gry Konsole1448  
 » Poradniki i inne3  
Muzyka :
 » Albumy50192  
 » Teledyski/Koncerty3871  
Dokumenty :
 » E-Booki14533  
 » Audiobooki6120  
 » Komiksy645  
 » Czasopisma79  
Programy :
 » Windows7260  
 » Linux + Macintosh309  
Inne :
 » Dla Dzieci3216  
 » Sport1383  
 » GSM - PDA909  
 » Manga - Anime2400  
 » Pozostałe - Różne1356  
Erotyka :
 » Filmy25513  
 » Zdjęcia94  
 » Czasopisma erotyczne17  
 » Gry erotyczne16  

Detale Torrenta
Nazwa plikuPredator: Prey - Prey 2022 [10Bit HDR] [MULTi.2160p.WEB-DL.H265.AC.5.1] [Lektor PL & Napisy PL]
Torrent:Predator: Prey - Prey 2022 [10Bit HDR] [MULTi.2160p.WEB-DL.H265.AC.5.1] [Lektor PL & Napisy PL].torrent
Info Hash:236d41e61fc8323936188a02856415d8b4d19482
Opis:

Info
Produkcja: USA
Gatunek: Akcja, Sci-Fi
Premiera: 5 Sierpnia 2022
Reżyseria: Dan Trachtenberg
Scenariusz: Patrick Aison

Opis
Naru, wojowniczka Komanczów, usiłuje uratować swoje plemię przed drapieżcą z kosmosu.

Obsada
Amber Midthunder .... Naru
Dakota Beavers .... Taabe
Stormee Kipp .... Wasape
Dane DiLiegro .... Predator
Michelle Thrush .... Aruka
Julian Black Antelope .... Wódz wojenny Kehetu
Harlan Blayne Kytwayhat .... Itsee
Cody Big Tobacco .... Ania

Dane Techniczne
Video
ID : 1
Format : HEVC
Format/Info : High Efficiency Video Coding
Format profile : Main 10L5Main
HDR format : SMPTE ST 2086, HDR10 compatible
Codec ID : V_MPEGH/ISO/HEVC
Duration : 1 h 39 min
Bit rate : 12.5 Mb/s
Width : 3 840 pixels
Height : 2 160 pixels
Display aspect ratio : 16:9
Frame rate mode : Variable
Frame rate : 24.000 FPS
Color space : YUV
Chroma subsampling : 4:2:0
Bit depth : 10 bits
Bits/(PixelFrame) : 0.063
Stream size : 8.67 GiB (92)
Default : Yes
Forced : No
Color range : Limited
Color primaries : BT.2020
Transfer characteristics : PQ
Matrix coefficients : BT.2020 non-constant
Mastering display color primaries : BT.2020
Mastering display luminance : min: 0.0001 cd/m2, max: 1000 cd/m2

Audio #1
ID : 2
Format : AC-3
Format/Info : Audio Coding 3
Commercial name : Dolby Digital
Codec ID : A_AC3
Duration : 1 h 39 min
Bit rate mode : Constant
Bit rate : 384 kb/s
Channel(s) : 6 channels
Channel layout : L R C LFE Ls Rs
Sampling rate : 48.0 kHz
Frame rate : 31.250 FPS (1536 SPF)
Compression mode : Lossy
Stream size : 273 MiB (3)
Title : Lektor PL
Language : Polish
Service kind : Complete Main
Default : Yes
Forced : No

Audio #2
ID : 3
Format : AC-3
Format/Info : Audio Coding 3
Commercial name : Dolby Digital
Codec ID : A_AC3
Duration : 1 h 39 min
Bit rate mode : Constant
Bit rate : 640 kb/s
Channel(s) : 6 channels
Channel layout : L R C LFE Ls Rs
Sampling rate : 48.0 kHz
Frame rate : 31.250 FPS (1536 SPF)
Compression mode : Lossy
Stream size : 455 MiB (5)
Title : Original
Language : English
Service kind : Complete Main
Default : No
Forced : No

Text #1
ID : 4
Format : UTF-8
Codec ID : S_TEXT/UTF8
Codec ID/Info : UTF-8 Plain Text
Duration : 1 h 32 min
Bit rate : 0 b/s
Count of elements : 3
Stream size : 102 Bytes (0)
Title : Forced PL
Language : Polish
Default : Yes
Forced : Yes

Text #2
ID : 5
Format : UTF-8
Codec ID : S_TEXT/UTF8
Codec ID/Info : UTF-8 Plain Text
Duration : 1 h 38 min
Bit rate : 10 b/s
Count of elements : 290
Stream size : 7.81 KiB (0)
Title : Napisy PL
Language : Polish
Default : No
Forced : No
Kategoria:DivX - XviD
Ocena: N/A
Rozmiar:9.38 GiB
Dodane:12/08/2022 03:44:02
Uploader:Ishimura
Statystyki:Seedów: 7   Leecherów: 16
Ostatnie Uaktualnienie25/11/2022 14:50:56


Brak komentarzy...


Wstecz
Uwaga!!!
Zaden z plikow znajdujacych sie w serwisie nie znajduje sie na serwerze. Torrenty sa wlasnoscia użytkownikow. Administrator serwisu ani wlasciciel serwera nie moze wiec poniesc konsekwencji za to co uzytkownicy wstawiaja, lub za to co czynia na stronie. Nie mozesz takze uzywac tego serwisu do rozpowszechniania lub sciagania materialow do ktorych nie masz odpowiednich praw lub licencji. Uzytkownicy odpowiedzialni są za przestrzeganie tych zasad. Ta strona nie zajmuje sie rozpowszechnianiem plikow chronionych prawem autorskim.

[ Execution time: 0.0154 sec. ] - [Memory usage: 1.97 MiB] - [ GZIP: disabled ]