Witamy Guest (Zaloguj) Zarejestruj się Przypomnij hasło Torrenty Kontakt Napisy PL


Torrent Kategorie
 » Wszystkie torrenty
Filmy :
 » DivX - XviD58419  
 » RMVB5168  
 » VCD - SVCD64  
 » DVD-R2075  
 » HDTV-HD-DVD1064  
 » x 2644607  
 » 3D98  
 » 4K230  
 » Seriale18284  
Gry :
 » Gry PC13312  
 » Gry Konsole1448  
 » Poradniki i inne3  
Muzyka :
 » Albumy49820  
 » Teledyski/Koncerty3871  
Dokumenty :
 » E-Booki14436  
 » Audiobooki6112  
 » Komiksy645  
 » Czasopisma44  
Programy :
 » Windows6989  
 » Linux + Macintosh307  
Inne :
 » Dla Dzieci3201  
 » Sport1320  
 » GSM - PDA909  
 » Manga - Anime2399  
 » Pozostałe - Różne1355  
Erotyka :
 » Filmy25487  
 » Zdjęcia94  
 » Czasopisma erotyczne17  
 » Gry erotyczne14  

Detale Torrenta
Nazwa plikuNiebezpieczne związki Dangerous Liaisons 2022 [540p] [NF] [WEBRip] [DDP5.1] [x264] [Lektor & Napisy PL]
Torrent:Niebezpieczne związki Dangerous Liaisons 2022 [540p] [NF] [WEBRip] [DDP5.1] [x264] [Lektor & Napisy PL].torrent
Info Hash:e90b553700f5d0bf1608eea4123910fd5624dbe1
Opis:



Produkcja: Francja
Gatunek: Melodramat
Premiera: 8 lipca 2022 (Polska premiera na VOD)
Reżyseria: Rachel Suissa
Scenariusz: Rachel Suissa, Slimane-Baptiste Berhoun

Source: Netflix



Paola Locatelli .... Cl?ne
Simon Rrolle .... Tristan
Ella Pellegrini .... Vanessa
Hlo?se Janjaud .... Charlotte
Jin Xuan Mao .... Tao
Oscar Lesage .... Oscar
Alexis Michalik .... Christophe
Julien Lopez .... Julius



Siedemnastoletnia Cl?ne jest idealistką. Wierzy w miłość absolutną i bardziej interesuje ją czytanie niż przesiadywanie w sieciach społecznościowych. Przygotowuje się do rozłąki ze swoim narzeczonym, Pierrem, ponieważ opuszcza Paryż i przenosi się do Biarritz. Nie mija dużo czasu, zanim musi stawić czoła podłej elicie z nowej szkoły, na czele której stoją Vanessa, była gwiazda wielkiego ekranu i królowa Instagrama, oraz Tristan, który jest równie niebezpieczny co kusicielski. Cl?ne zakochuje się w nim, nie podejrzewając, że padła ofiarą okrutnego zakładu pomiędzy Tristanem i Vanessą. Jak daleko się posuną



Video
ID : 1
Format : AVC
Format/Info : Advanced Video Codec
Format profile : HighL3.1
Format settings : CABAC / 4 Ref Frames
Format settings, CABAC : Yes
Format settings, Reference fra : 4 frames
Codec ID : avc1
Codec ID/Info : Advanced Video Coding
Duration : 1 h 48 min
Bit rate mode : Variable
Bit rate : 1 084 kb/s
Maximum bit rate : 10 000 kb/s
Width : 960 pixels
Height : 540 pixels
Display aspect ratio : 16:9
Frame rate mode : Variable
Frame rate : 24.000 FPS
Minimum frame rate : 12.000 FPS
Maximum frame rate : 90 000.000 FPS
Color space : YUV
Chroma subsampling : 4:2:0
Bit depth : 8 bits
Scan type : Progressive
Bits/(PixelFrame) : 0.087
Stream size : 845 MiB (46)

Audio #1
ID : 2
Format : E-AC-3
Format/Info : Enhanced AC-3
Commercial name : Dolby Digital Plus
Codec ID : ec-3
Duration : 1 h 49 min
Bit rate mode : Constant
Bit rate : 640 kb/s
Channel(s) : 6 channels
Channel layout : L R C LFE Ls Rs
Sampling rate : 48.0 kHz
Frame rate : 31.250 FPS (1536 SPF)
Compression mode : Lossy
Stream size : 499 MiB (27)
Language : Polish
Service kind : Complete Main
Default : Yes
Alternate group : 1

Audio #2
ID : 3
Format : E-AC-3
Format/Info : Enhanced AC-3
Commercial name : Dolby Digital Plus
Codec ID : ec-3
Duration : 1 h 49 min
Bit rate mode : Constant
Bit rate : 640 kb/s
Channel(s) : 6 channels
Channel layout : L R C LFE Ls Rs
Sampling rate : 48.0 kHz
Frame rate : 31.250 FPS (1536 SPF)
Compression mode : Lossy
Stream size : 499 MiB (27)
Language : French
Service kind : Complete Main
Default : Yes
Alternate group : 2
Kategoria:DivX - XviD
Ocena: N/A
Rozmiar:1.80 GiB
Dodane:23/09/2022 04:16:03
Uploader:Ishimura
Statystyki:Seedów: 0   Leecherów: 0
Ostatnie Uaktualnienie25/09/2022 16:24:49


Brak komentarzy...


Wstecz
Uwaga!!!
Zaden z plikow znajdujacych sie w serwisie nie znajduje sie na serwerze. Torrenty sa wlasnoscia użytkownikow. Administrator serwisu ani wlasciciel serwera nie moze wiec poniesc konsekwencji za to co uzytkownicy wstawiaja, lub za to co czynia na stronie. Nie mozesz takze uzywac tego serwisu do rozpowszechniania lub sciagania materialow do ktorych nie masz odpowiednich praw lub licencji. Uzytkownicy odpowiedzialni są za przestrzeganie tych zasad. Ta strona nie zajmuje sie rozpowszechnianiem plikow chronionych prawem autorskim.

[ Execution time: 0.0167 sec. ] - [Memory usage: 1.97 MiB] - [ GZIP: disabled ]