Witamy Guest (Zaloguj) Zarejestruj się Przypomnij hasło Torrenty Kontakt Napisy PL


Torrent Kategorie
 » Wszystkie torrenty
Filmy :
 » DivX - XviD60296  
 » RMVB5168  
 » VCD - SVCD64  
 » DVD-R2079  
 » HDTV-HD-DVD1242  
 » x 2646175  
 » 3D98  
 » 4K271  
 » Seriale19380  
Gry :
 » Gry PC13955  
 » Gry Konsole1448  
 » Poradniki i inne3  
Muzyka :
 » Albumy50571  
 » Teledyski/Koncerty3872  
Dokumenty :
 » E-Booki14742  
 » Audiobooki6141  
 » Komiksy647  
 » Czasopisma100  
Programy :
 » Windows7397  
 » Linux + Macintosh314  
Inne :
 » Dla Dzieci3226  
 » Sport1407  
 » GSM - PDA910  
 » Manga - Anime2402  
 » Pozostałe - Różne1356  
Erotyka :
 » Filmy25517  
 » Zdjęcia94  
 » Czasopisma erotyczne17  
 » Gry erotyczne19  


Detale Torrenta
Nazwa plikuFauda 2015 [S01] [1080p.NF.WEBRip.DDP2.0.x264] [Napisy PL]
Torrent:Fauda 2015 [S01] [1080p.NF.WEBRip.DDP2.0.x264] [Napisy PL].torrent
Info Hash:68144cc310bded469782652d6141ff6a765696a0
Opis:

...( Info )...

Produkcja: Izrael
Gatunek: Thriller, Polityczny
Twórca: Avi Issacharoff
Platforma: Netflix
Premiera: 2015-2023

...( Opis )...

Wyśmienity izraelski agent wraca do czynnej służby, by dopaść palestyńskiego bojownika, który teoretycznie miał już nie żyć. Rozpoczyna się chaotyczne polowanie.

...( Obsada )...

Lior Raz .... Doron Kavillio
Hisham Suliman .... Taofik Hamed Abu Ahmad
Shadi Mari .... Walid El Abed
Latitia Edo .... Dr Shirin El Abed
Itzik Cohen .... Gabi Kapitan Eyov
Yuval Segal .... Mickey Moreno
Neta Garty .... Gali Kavillio
Hanan Hillo .... Nasrin Hamed

...( Dane Techniczne )...

Video
ID : 1
Format : AVC
Format/Info : Advanced Video Codec
Format profile : MainL4
Format settings : CABAC / 3 Ref Frames
Format settings, CABAC : Yes
Format settings, Reference frames : 3 frames
Codec ID : V_MPEG4/ISO/AVC
Duration : 41 min 42 s
Bit rate mode : Variable
Bit rate : 4 481 kb/s
Nominal bit rate : 5 360 kb/s
Maximum bit rate : 8 040 kb/s
Width : 1 920 pixels
Height : 1 080 pixels
Display aspect ratio : 16:9
Frame rate mode : Constant
Frame rate : 25.000 FPS
Color space : YUV
Chroma subsampling : 4:2:0
Bit depth : 8 bits
Scan type : Progressive
Bits/(PixelFrame) : 0.086
Stream size : 1.31 GiB (94)
Writing library : x264 core 148 r2727 7d026e8
Encoding settings : cabac=1 / ref=3 / deblock=1:0:0 / analyse=0x1:0x111 / me=umh / subme=10 / psy=1 / psy_rd=1.00:0.00 / mixed_ref=1 / me_range=24 / chroma_me=1 / trellis=2 / 8x8dct=0 / cqm=0 / deadzone=21,11 / fast_pskip=1 / chroma_qp_offset=-2 / threads=8 / lookahead_threads=1 / sliced_threads=0 / nr=0 / decimate=1 / interlaced=0 / bluray_compat=0 / stitchable=1 / constrained_intra=0 / bframes=2 / b_pyramid=0 / b_adapt=2 / b_bias=0 / direct=3 / weightb=1 / open_gop=0 / weightp=2 / keyint=250 / keyint_min=25 / scenecut=0 / intra_refresh=0 / rc_lookahead=50 / rc=2pass / mbtree=1 / bitrate=5360 / ratetol=1.0 / qcomp=0.50 / qpmin=6 / qpmax=51 / qpstep=4 / cplxblur=20.0 / qblur=0.5 / vbv_maxrate=8040 / vbv_bufsize=10720 / nal_hrd=vbr / filler=0 / ip_ratio=1.40 / aq=1:1.00
Language : Hebrew
Default : Yes
Forced : No

Audio #1
ID : 2
Format : E-AC-3
Format/Info : Enhanced AC-3
Commercial name : Dolby Digital Plus
Codec ID : A_EAC3
Duration : 41 min 42 s
Bit rate mode : Constant
Bit rate : 128 kb/s
Channel(s) : 2 channels
Channel layout : L R
Sampling rate : 48.0 kHz
Frame rate : 31.250 FPS (1536 SPF)
Compression mode : Lossy
Stream size : 38.2 MiB (3)
Language : Hebrew
Service kind : Complete Main
Default : Yes
Forced : No

Audio #2
ID : 3
Format : E-AC-3
Format/Info : Enhanced AC-3
Commercial name : Dolby Digital Plus
Codec ID : A_EAC3
Duration : 41 min 42 s
Bit rate mode : Constant
Bit rate : 128 kb/s
Channel(s) : 2 channels
Channel layout : L R
Sampling rate : 48.0 kHz
Frame rate : 31.250 FPS (1536 SPF)
Compression mode : Lossy
Stream size : 38.2 MiB (3)
Language : English
Service kind : Complete Main
Default : No
Forced : No

Text #1
ID : 4
Format : UTF-8
Codec ID : S_TEXT/UTF8
Codec ID/Info : UTF-8 Plain Text
Duration : 40 min 5 s
Bit rate : 71 b/s
Frame rate : 0.161 FPS
Count of elements : 388
Stream size : 21.0 KiB (0)
Language : Hebrew
Default : No
Forced : No

Text #2
ID : 5
Format : UTF-8
Codec ID : S_TEXT/UTF8
Codec ID/Info : UTF-8 Plain Text
Duration : 40 min 5 s
Bit rate : 22 b/s
Frame rate : 0.083 FPS
Count of elements : 200
Stream size : 6.64 KiB (0)
Title : Forced
Language : English
Default : No
Forced : Yes

Text #3
ID : 6
Format : UTF-8
Codec ID : S_TEXT/UTF8
Codec ID/Info : UTF-8 Plain Text
Duration : 40 min 5 s
Bit rate : 46 b/s
Frame rate : 0.157 FPS
Count of elements : 377
Stream size : 13.7 KiB (0)
Language : English
Default : No
Forced : No

Text #4
ID : 7
Format : UTF-8
Codec ID : S_TEXT/UTF8
Codec ID/Info : UTF-8 Plain Text
Duration : 40 min 5 s
Bit rate : 68 b/s
Frame rate : 0.156 FPS
Count of elements : 376
Stream size : 20.2 KiB (0)
Language : Arabic
Default : No
Forced : No

Text #5
ID : 8
Format : UTF-8
Codec ID : S_TEXT/UTF8
Codec ID/Info : UTF-8 Plain Text
Duration : 40 min 41 s
Bit rate : 43 b/s
Frame rate : 0.155 FPS
Count of elements : 379
Stream size : 12.9 KiB (0)
Language : Czech
Default : No
Forced : No

Text #6
ID : 9
Format : UTF-8
Codec ID : S_TEXT/UTF8
Codec ID/Info : UTF-8 Plain Text
Duration : 40 min 41 s
Bit rate : 40 b/s
Frame rate : 0.139 FPS
Count of elements : 340
Stream size : 12.1 KiB (0)
Language : Danish
Default : No
Forced : No

Text #7
ID : 10
Format : UTF-8
Codec ID : S_TEXT/UTF8
Codec ID/Info : UTF-8 Plain Text
Duration : 40 min 5 s
Bit rate : 53 b/s
Frame rate : 0.158 FPS
Count of elements : 379
Stream size : 15.8 KiB (0)
Language : German
Default : No
Forced : No

Text #8
ID : 11
Format : UTF-8
Codec ID : S_TEXT/UTF8
Codec ID/Info : UTF-8 Plain Text
Duration : 40 min 41 s
Bit rate : 73 b/s
Frame rate : 0.148 FPS
Count of elements : 362
Stream size : 22.0 KiB (0)
Language : Greek
Default : No
Forced : No

Text #9
ID : 12
Format : UTF-8
Codec ID : S_TEXT/UTF8
Codec ID/Info : UTF-8 Plain Text
Duration : 40 min 5 s
Bit rate : 48 b/s
Frame rate : 0.158 FPS
Count of elements : 379
Stream size : 14.3 KiB (0)
Title : Latin American
Language : Spanish (Latin America)
Default : No
Forced : No

Text #10
ID : 13
Format : UTF-8
Codec ID : S_TEXT/UTF8
Codec ID/Info : UTF-8 Plain Text
Duration : 40 min 5 s
Bit rate : 50 b/s
Frame rate : 0.157 FPS
Count of elements : 378
Stream size : 14.7 KiB (0)
Language : Spanish (ES)
Default : No
Forced : No

Text #11
ID : 14
Format : UTF-8
Codec ID : S_TEXT/UTF8
Codec ID/Info : UTF-8 Plain Text
Duration : 40 min 4 s
Bit rate : 44 b/s
Frame rate : 0.157 FPS
Count of elements : 378
Stream size : 13.0 KiB (0)
Language : Finnish
Default : No
Forced : No

Text #12
ID : 15
Format : UTF-8
Codec ID : S_TEXT/UTF8
Codec ID/Info : UTF-8 Plain Text
Duration : 40 min 41 s
Bit rate : 41 b/s
Frame rate : 0.174 FPS
Count of elements : 426
Stream size : 12.4 KiB (0)
Language : French
Default : No
Forced : No

Text #13
ID : 16
Format : UTF-8
Codec ID : S_TEXT/UTF8
Codec ID/Info : UTF-8 Plain Text
Duration : 41 min 1 s
Bit rate : 35 b/s
Frame rate : 0.154 FPS
Count of elements : 380
Stream size : 10.7 KiB (0)
Language : Croatian
Default : No
Forced : No

Text #14
ID : 17
Format : UTF-8
Codec ID : S_TEXT/UTF8
Codec ID/Info : UTF-8 Plain Text
Duration : 40 min 41 s
Bit rate : 40 b/s
Frame rate : 0.150 FPS
Count of elements : 367
Stream size : 12.1 KiB (0)
Language : Hungarian
Default : No
Forced : No

Text #15
ID : 18
Format : UTF-8
Codec ID : S_TEXT/UTF8
Codec ID/Info : UTF-8 Plain Text
Duration : 40 min 41 s
Bit rate : 41 b/s
Frame rate : 0.155 FPS
Count of elements : 379
Stream size : 12.5 KiB (0)
Language : Indonesian
Default : No
Forced : No

Text #16
ID : 19
Format : UTF-8
Codec ID : S_TEXT/UTF8
Codec ID/Info : UTF-8 Plain Text
Duration : 40 min 5 s
Bit rate : 43 b/s
Frame rate : 0.167 FPS
Count of elements : 402
Stream size : 12.7 KiB (0)
Language : Italian
Default : No
Forced : No

Text #17
ID : 20
Format : UTF-8
Codec ID : S_TEXT/UTF8
Codec ID/Info : UTF-8 Plain Text
Duration : 40 min 5 s
Bit rate : 53 b/s
Frame rate : 0.197 FPS
Count of elements : 473
Stream size : 15.6 KiB (0)
Language : Japanese
Default : No
Forced : No

Text #18
ID : 21
Format : UTF-8
Codec ID : S_TEXT/UTF8
Codec ID/Info : UTF-8 Plain Text
Duration : 40 min 4 s
Bit rate : 53 b/s
Frame rate : 0.166 FPS
Count of elements : 399
Stream size : 15.7 KiB (0)
Language : Korean
Default : No
Forced : No

Text #19
ID : 22
Format : UTF-8
Codec ID : S_TEXT/UTF8
Codec ID/Info : UTF-8 Plain Text
Duration : 40 min 5 s
Bit rate : 42 b/s
Frame rate : 0.147 FPS
Count of elements : 354
Stream size : 12.6 KiB (0)
Language : Norwegian Bokmal
Default : No
Forced : No

Text #20
ID : 23
Format : UTF-8
Codec ID : S_TEXT/UTF8
Codec ID/Info : UTF-8 Plain Text
Duration : 40 min 6 s
Bit rate : 43 b/s
Frame rate : 0.141 FPS
Count of elements : 340
Stream size : 12.9 KiB (0)
Language : Dutch
Default : No
Forced : No

Text #21
ID : 24
Format : UTF-8
Codec ID : S_TEXT/UTF8
Codec ID/Info : UTF-8 Plain Text
Duration : 40 min 4 s
Bit rate : 39 b/s
Frame rate : 0.156 FPS
Count of elements : 375
Stream size : 11.7 KiB (0)
Language : Polish
Default : No
Forced : No

Text #22
ID : 25
Format : UTF-8
Codec ID : S_TEXT/UTF8
Codec ID/Info : UTF-8 Plain Text
Duration : 40 min 5 s
Bit rate : 48 b/s
Frame rate : 0.167 FPS
Count of elements : 402
Stream size : 14.2 KiB (0)
Language : Portuguese (PT)
Default : No
Forced : No

Text #23
ID : 26
Format : UTF-8
Codec ID : S_TEXT/UTF8
Codec ID/Info : UTF-8 Plain Text
Duration : 40 min 5 s
Bit rate : 50 b/s
Frame rate : 0.158 FPS
Count of elements : 379
Stream size : 14.8 KiB (0)
Language : Romanian
Default : No
Forced : No

Text #24
ID : 27
Format : UTF-8
Codec ID : S_TEXT/UTF8
Codec ID/Info : UTF-8 Plain Text
Duration : 40 min 5 s
Bit rate : 76 b/s
Frame rate : 0.157 FPS
Count of elements : 378
Stream size : 22.3 KiB (0)
Language : Russian
Default : No
Forced : No

Text #25
ID : 28
Format : UTF-8
Codec ID : S_TEXT/UTF8
Codec ID/Info : UTF-8 Plain Text
Duration : 40 min 5 s
Bit rate : 43 b/s
Frame rate : 0.137 FPS
Count of elements : 330
Stream size : 12.9 KiB (0)
Language : Swedish
Default : No
Forced : No

Text #26
ID : 29
Format : UTF-8
Codec ID : S_TEXT/UTF8
Codec ID/Info : UTF-8 Plain Text
Duration : 40 min 5 s
Bit rate : 106 b/s
Frame rate : 0.157 FPS
Count of elements : 378
Stream size : 31.4 KiB (0)
Language : Thai
Default : No
Forced : No

Text #27
ID : 30
Format : UTF-8
Codec ID : S_TEXT/UTF8
Codec ID/Info : UTF-8 Plain Text
Duration : 40 min 5 s
Bit rate : 45 b/s
Frame rate : 0.151 FPS
Count of elements : 363
Stream size : 13.4 KiB (0)
Language : Turkish
Default : No
Forced : No

Text #28
ID : 31
Format : UTF-8
Codec ID : S_TEXT/UTF8
Codec ID/Info : UTF-8 Plain Text
Duration : 40 min 5 s
Bit rate : 59 b/s
Frame rate : 0.157 FPS
Count of elements : 378
Stream size : 17.6 KiB (0)
Language : Vietnamese
Default : No
Forced : No

Text #29
ID : 32
Format : UTF-8
Codec ID : S_TEXT/UTF8
Codec ID/Info : UTF-8 Plain Text
Duration : 40 min 5 s
Bit rate : 41 b/s
Frame rate : 0.163 FPS
Count of elements : 393
Stream size : 12.2 KiB (0)
Title : Simplified
Language : Chinese (Simplied)
Default : No
Forced : No

Text #30
ID : 33
Format : UTF-8
Codec ID : S_TEXT/UTF8
Codec ID/Info : UTF-8 Plain Text
Duration : 40 min 5 s
Bit rate : 42 b/s
Frame rate : 0.163 FPS
Count of elements : 391
Stream size : 12.4 KiB (0)
Title : Traditional
Language : Chinese (Traditional)
Default : No
Forced : No

Menu
00:40:49.000 : en:End Credits
Kategoria:Seriale
Ocena: N/A
Rozmiar:12.65 GiB
Dodane:25/01/2023 04:08:05
Uploader:Ishimura
Statystyki:Seedów: 19   Leecherów: 13
Ostatnie Uaktualnienie27/01/2023 17:31:09



Brak komentarzy...


Wstecz
Uwaga!!!
Zaden z plikow znajdujacych sie w serwisie nie znajduje sie na serwerze. Torrenty sa wlasnoscia użytkownikow. Administrator serwisu ani wlasciciel serwera nie moze wiec poniesc konsekwencji za to co uzytkownicy wstawiaja, lub za to co czynia na stronie. Nie mozesz takze uzywac tego serwisu do rozpowszechniania lub sciagania materialow do ktorych nie masz odpowiednich praw lub licencji. Uzytkownicy odpowiedzialni są za przestrzeganie tych zasad. Ta strona nie zajmuje sie rozpowszechnianiem plikow chronionych prawem autorskim.

[ Execution time: 0.0264 sec. ] - [Memory usage: 2.01 MiB] - [ GZIP: disabled ]